Podcasts about dugg

Share on
Share on Facebook
Share on Twitter
Share on Reddit
Copy link to clipboard

increase in traffic caused by a popular website linking to a smaller website

  • 144PODCASTS
  • 206EPISODES
  • 1h 2mAVG DURATION
  • 5WEEKLY NEW EPISODES
  • Oct 22, 2021LATEST

POPULARITY

20112012201320142015201620172018201920202021


Best podcasts about dugg

Latest podcast episodes about dugg

Funk Factory Radio
Episode 334: Funk Factory Radio Ep. 334

Funk Factory Radio

Play Episode Listen Later Oct 22, 2021 42:03


Meek Mill feat. Lil...  | Sharing LocationsNardo Wick | Who Want Smoke 42 Dugg feat. Future  | MaybachGunna feat. Future  | Too Easy Jack Harlow | SUVS Moneybagg Yo  | Wockesha Joyner Lucas | Your Heart 24kGoldn | PradaBlxst feat. Ty Dolla...  | ChosenCapella Grey | GYALIS Wale feat. J. Cole  | Poke It Out Kent Jones feat. Ri...  | Bout That Pop Smoke feat. C... | Woo Baby

The Mr. Bill Podcast
MBP #100 ill.Gates

The Mr. Bill Podcast

Play Episode Listen Later Oct 14, 2021 149:05


ill.Gates is a name known by nearly all producers in the English speaking world. His songs have been in the iTunes Top Ten Electronic Charts several times. DJs play his music every weekend and fans wear their ill.Gates tattoos with pride. Some of his collaborators include 42 Dugg, Alanis Morisette, Andrew Huang, Apashe, Beats Antique, Captain Hook, CloZee, Conrank, The Dead Kennedys, Destroid, Eprom, EyeOnEyez, G Jones, Gucci Mane, ill-esha, KJ Sawka, Liquid Stanger, Masia One, Mimosa, Minnesota, Mr Bill, Opiuo, RIP Kenny, Stephan Jacobs, Stylust, UHNK, Vaedynn, and Zain Effendi (composer on Pirates of the Caribbean, Dark Knight). His ringtones can be heard on the Windows Phone and the animatronic Droids perform to his music at Star Wars Disneyland. At this point I think it's safe to say ill.Gates is a household name. When he isn't composing his own music ill.Gates is teaching the next generation of musicians and providing employment opportunities through Producer Dojo, an organization he founded in 2016 with the goal of ‘launching 1000 music careers'. Producer Dojo uses a martial arts belt system to cultivate discipline in young music producers, provides them an outlet for release on the Dojo record label, and helps them create an online business selling samples, sounds and services. ill.Gates is known for traveling the globe but has recently moved to Los Angeles in order to build a studio for the Producer Dojo, which opened in 2018. You can catch up with the ill one at www.illGates.com and learn all about the Dojo at www.ProducerDojo.com ill.Gates Links: https://illgates.com/ https://www.facebook.com/illGatesMusic/ https://twitter.com/illgatesmusic Mr. Bill's Links: Patreon: https://www.patreon.com/mrbillstunes https://live.mrbillstunes.com/ https://discord.gg/ySjhgWQ https://mrbill.bandcamp.com/ https://www.youtube.com/user/MrBillsTunes Podcast Produced & Edited by: https://twitter.com/303FuMo

The Tonka Toy Podcast
9-29-21 1st Up Radio Clean

The Tonka Toy Podcast

Play Episode Listen Later Sep 30, 2021 44:43


TITLE "20:01" FILE "9-29-xx.mp3" MP3   TRACK 01 AUDIO     TITLE "Still A Fan(Clean w/ Drop) (Clean w  Drop)"     PERFORMER "DJ Envy feat. Rico Love"     INDEX 01 00:00:00   TRACK 02 AUDIO     TITLE "Burbons And Lacs (feat  Silkk The Shocker & Lil' Gotti)"     PERFORMER "Master P feat. Silkk The Shocker & Lil' Gotti"     INDEX 01 01:26:00   TRACK 03 AUDIO     TITLE "Fold Dat Money Up"     PERFORMER "Gucci Mane feat. Project Pat"     INDEX 01 02:33:00   TRACK 04 AUDIO     TITLE "Still Runnin"     PERFORMER "Lil Baby"     INDEX 01 04:35:00   TRACK 05 AUDIO     TITLE "We In Da City (Clean)"     PERFORMER "Young Dro"     INDEX 01 05:51:00   TRACK 06 AUDIO     TITLE "Talented"     PERFORMER "Skooly"     INDEX 01 06:59:00   TRACK 07 AUDIO     TITLE "Rollin (Yeah Tho)"     PERFORMER "Renni Rucci"     INDEX 01 08:39:00   TRACK 08 AUDIO     TITLE "Knife Talk (feat  21 Savage & Project Pat)"     PERFORMER "Drake feat. 21 Savage & Project Pat"     INDEX 01 09:35:00   TRACK 09 AUDIO     TITLE "61st to 64th"     PERFORMER "Lil Zay Osama"     INDEX 01 11:31:00   TRACK 10 AUDIO     TITLE "Gucci Snakes (Clean Intro)"     PERFORMER "Tyga And Desiigner"     INDEX 01 13:00:00   TRACK 11 AUDIO     TITLE "Bankroll Fresh (Clean)"     PERFORMER "Bankroll Fresh feat. 2 Chainz  Skooly - Takeover Yo Trap (Clean)"     INDEX 01 14:09:00   TRACK 12 AUDIO     TITLE "Sneak Dissa"     PERFORMER "DOE BOY"     INDEX 01 16:03:00   TRACK 13 AUDIO     TITLE "On My Mind (feat  Maeta)"     PERFORMER "Kalan.FrFr feat. Maeta"     INDEX 01 17:20:00   TRACK 14 AUDIO     TITLE "No Return"     PERFORMER "Polo G"     INDEX 01 18:57:00   TRACK 15 AUDIO     TITLE "Mystery Lady"     PERFORMER "Masego & Don Toliver"     INDEX 01 20:44:00   TRACK 16 AUDIO     TITLE "No Friends In The Industry"     PERFORMER "Drake"     INDEX 01 22:53:00   TRACK 17 AUDIO     TITLE "Lick Back Remix (feat  Future & Young Thug)"     PERFORMER "EST Gee feat. Future & Young Thug"     INDEX 01 25:07:00   TRACK 18 AUDIO     TITLE "Opp Pack (feat  Nardo Wick)"     PERFORMER "42 Dugg feat. Nardo Wick"     INDEX 01 27:36:00   TRACK 19 AUDIO     TITLE "Who Want Smoke (Clean)"     PERFORMER "Nardo Wick"     INDEX 01 28:58:00   TRACK 20 AUDIO     TITLE "Slime Mobb (feat  Marlo & Lil Keed)"     PERFORMER "24Heavy feat. Marlo & Lil Keed"     INDEX 01 30:11:00   TRACK 21 AUDIO     TITLE "02. Court Tomorrow (clean)"     PERFORMER ""     INDEX 01 31:45:00   TRACK 22 AUDIO     TITLE "Jonah"     PERFORMER "Kanye West"     INDEX 01 34:08:00   TRACK 23 AUDIO     TITLE "Baddest"     PERFORMER "Yung Bleu"     INDEX 01 35:44:00   TRACK 24 AUDIO     TITLE "Excuse Me"     PERFORMER "Mozzy"     INDEX 01 38:25:00   TRACK 25 AUDIO     TITLE "Soon Come"     PERFORMER "Capella Grey feat. Iman & JusQuinn"     INDEX 01 40:18:00   TRACK 26 AUDIO     TITLE "You're The One"     PERFORMER "Leela James"     INDEX 01 41:23:00

RNS Podcast
Episode 127 Do You Think That They Got Hotels In Space?

RNS Podcast

Play Episode Listen Later Sep 28, 2021 55:04


For the first time in a while the whole gang is here. The sit to discuss Da Baby's Rolling Loud comments, 42 Dugg's way of showing affection to his son, Jeff Bezos thanking the workers and customers of Amazon for funding his trip to space and more

The Tonka Toy Podcast
9-14-21 1St Up radio Mix

The Tonka Toy Podcast

Play Episode Listen Later Sep 15, 2021 36:40


PERFORMER "Tonka " TITLE "19:39" FILE "9-14-21 uo.mp3" MP3   TRACK 01 AUDIO     TITLE "Black Habits I"     PERFORMER "D Smoke"     INDEX 01 00:00:00   TRACK 02 AUDIO     TITLE "Vampire"     PERFORMER "2 Chainz"     INDEX 01 02:26:00   TRACK 03 AUDIO     TITLE "Mystery Lady"     PERFORMER "Masego & Don Toliver"     INDEX 01 03:43:00   TRACK 04 AUDIO     TITLE "Da Baddest (Radio)"     PERFORMER "Big Kuntry feat. Trey Songz"     INDEX 01 05:41:00   TRACK 05 AUDIO     TITLE "Mr Wrong (ReMike Intro) (Quick Hit) (Clean)"     PERFORMER "Mary J Blige feat. Drake"     INDEX 01 07:21:00   TRACK 06 AUDIO     TITLE "Trap Queen (Clean)"     PERFORMER "Fetty Wap"     INDEX 01 08:36:00   TRACK 07 AUDIO     TITLE "Not A Stain On Me (Radio)"     PERFORMER "Big Tuck feat. Fat B"     INDEX 01 10:17:00   TRACK 08 AUDIO     TITLE "Who Dat (Radio)"     PERFORMER "Young Jeezy"     INDEX 01 11:45:00   TRACK 09 AUDIO     TITLE "Pretty Girl Rock (Intro) Radio)"     PERFORMER "Keri Hilson"     INDEX 01 13:51:00   TRACK 10 AUDIO     TITLE "Ok Ok"     PERFORMER "Kanye West"     INDEX 01 15:28:00   TRACK 11 AUDIO     TITLE "Too Official (feat  Yo Gotti)"     PERFORMER "BIG30 feat. Yo Gotti"     INDEX 01 17:20:00   TRACK 12 AUDIO     TITLE "No Friends In The Industry"     PERFORMER "Drake"     INDEX 01 19:26:00   TRACK 13 AUDIO     TITLE "Opp Pack (feat  Nardo Wick)"     PERFORMER "42 Dugg feat. Nardo Wick"     INDEX 01 21:09:00   TRACK 14 AUDIO     TITLE "Get In Dere"     PERFORMER "DOE BOY"     INDEX 01 22:29:00   TRACK 15 AUDIO     TITLE "Bigger Than Life Or Death"     PERFORMER "EST Gee"     INDEX 01 24:27:00   TRACK 16 AUDIO     TITLE "Angels Never Cry"     PERFORMER "Yung Bleu"     INDEX 01 25:49:00   TRACK 17 AUDIO     TITLE "Throw da Set (Long Live Von)"     PERFORMER "Fredo Bang"     INDEX 01 28:32:00   TRACK 18 AUDIO     TITLE "WRONG"     PERFORMER "The Kid LAROI"     INDEX 01 29:49:00   TRACK 19 AUDIO     TITLE "Vibe With You"     PERFORMER "YG"     INDEX 01 30:42:00   TRACK 20 AUDIO     TITLE "7am On Bridle Path"     PERFORMER "Drake"     INDEX 01 33:03:00

Dirty Swift
#MondayMix 373 by @dirtyswift «Saison 12 Episode 2 - Brand New Rap FR & US» 13.Sept.2021 (Live Mix)

Dirty Swift

Play Episode Listen Later Sep 13, 2021 54:15


Kanye West, Travis Scott, Baby Keem, Kendrick Lamar, Kblast, Kelsz Luchie, Playboi Carti, Fivio Foreign, Green Montana, Niska, Guy2Bezbar, DJ Babs, Guy2Bezbar, Tion Wayne, ArrDee, Loski, Booby Block, Stavo, Bizzy Banks, 22Gz, Isaiah Rashad, Lil Uzi Vert, Childish Major, Schoolboy Q, Key Glock, Gucci Mane, Dave, Stormzy, DA Uzi, Freeze Corleone, Dieson Samba, Negrito, Lil Tecca, Trippie Redd, Chief Keef, Rich The Kid, Polo G, YehMe2, 10k.Caash, Drake , 21 Savage, Project Pat, Chief Keef, MikeWillMadeIt, Tory Lanez, Kodak Black, Bolémvn, NLE Choppa, YungManny, EST Gee, Belly, Meek Mill, Lil Durk, Trapboy Freddy, 42 Dugg, Lil Durk, Gunna & Taurus, Babyface Ray, Big Sean, Hit-Boy, Lil Tecca, NAV, Capella Grey #KanyeWest #TravisScott #BabyKeem #KendrickLamar #Kblast #Kelsz Luchie #PlayboiCarti #FivioForeign #GreenMontana #Niska #Guy2Bezbar #DJBabs #Guy2Bezbar #TionWayne #ArrDee #Loski #BoobyBlock #Stavo #BizzyBanks #22Gz #IsaiahRashad #LilUziVert #ChildishMajor #SchoolboyQ #KeyGlock #GucciMane #Dave #Stormzy #DAUzi #FreezeCorleone #DiesonSamba #Negrito #LilTecca #TrippieRedd #ChiefKeef #RichTheKid #PoloG #YehMe2 #10k.Caash #Drake#21Savage #ProjectPat #ChiefKeef #MikeWillMadeIt #ToryLanez #KodakBlack #Bolémvn #NLEChoppa #YungManny #ESTGee #Belly #MeekMill #LilDurk #TrapboyFreddy #42Dugg #LilDurk #Gunna #Taurus #BabyfaceRay #Sean #Hit-Boy #LilTecca #NAV #CapellaGrey

Shoot Your Shot Pod
Episode 174: Beggin' for Change.

Shoot Your Shot Pod

Play Episode Listen Later Sep 3, 2021 108:03


C. Diddy (@cdiddy513) & co-host Alex (@allienichole_)recap the events of the last week, including: a fake high school scamming ESPN, Kanye West finally dropping Donda & it seems like the music heavyweights are gearing up, Beyonce's birthday and a couple hot take questions about the Queen Bey, digital begging and much more on this week's episode. Intro: 42 Dugg (feat. Lil Durk) - Free RIC Outro: Dear Silas - Shoot My Shot *we do not own rights to this music or audio* Continue to communicate with us using the #ShootYourShotPod hashtag. And follow us on: Twitter (@SYSPodcast), Instagram (@shootyourshotpod) and Facebook (Shoot Your Shot Pod) If you have a question you want us to discuss on the podcast, email us at shootyourshotpod@gmail.com

Morgan Sherm Presents Another Element
Another Element: Big30

Morgan Sherm Presents Another Element

Play Episode Listen Later Aug 16, 2021 119:30


The crew is back for episode 30. The topics of discussion include the legendary resurgence of The LOX, DONDA, and older men flaunting much younger women at Lollapalooza. Plus a whole lot more #MusicTheory EST Gee (feat. 42 Dugg, Rylo Rodriguez & Lil Baby ) - 550 Degrees Isaiah Rashad (feat. iamdoechii & Kal Banx) - Wat U Sed Jyroscope - Take It Easy

OndeckTV
Nas "King's Disease 2" review

OndeckTV

Play Episode Listen Later Aug 11, 2021 61:38


Listen as Spike Lou and Animal Brown react to 42 Dugg's IG rant, Nas's new album and Congress recognizing Hip-Hop.  Also, we discuss the biggest moments in festival history.   Check out our Patreon for more exclusive content and subscribe here http://patreon.com/reelville New Youtube Alert https://www.youtube.com/ondecktvpodcast Help Reelville get to 1k subscribers on Youtube!! http://youtube.com/reelville

Wine Cellar Media
Uncle Billy Reacts To 42 Dugg

Wine Cellar Media

Play Episode Listen Later Aug 10, 2021 63:00


Hey gang. William has to also be Uncle Billy for the baby.   Today the baby wants a reaction to this young rapper man, 42 Dugg.   For some reason, I can't seem to just do a simple 7-13 minute reaction like the other folks I've seen doing this.  I end up covering it the way I do right wing radio.  Hyperfocusing on every bar.   It comes out funny and of course comes loaded with the ranty tangents.  patreon.com/winecellarmediafund

Everyday Jay Podcast
Episode 55 | She's A Beautiful Thing Mu

Everyday Jay Podcast

Play Episode Listen Later Aug 8, 2021 95:28


An Episode full of fun and laughter. We breakdown The Lox & Dip Set Verzuz battle, Da Baby losing endorsements & festivals. 42 Dugg kissing his sons neck, The Olympics was fun to discuss we talked Athing Mu and what's in a name, Simone Biles return to action. NBA free agency, lap dances at the funeral, COCO & Ice T still breast feeding their baby, If we would stay in a relationship with a woman who hits you, Disney World employees arrested on child predator charges, a woman riding around with dead niece & nephew in the trunk, friend shooting each other, Quavo paying assistant $5000 a day. and a whole lot more. so press play and enjoy the show. Be sure to like #subscribe, #share

What's Da Word
Home Is Where They Hate You

What's Da Word

Play Episode Listen Later Aug 5, 2021 90:42


Yo! You already know what it is…IT'S WHAT'S DA WORD WEDNESDAY'S!! Join Kiss and D.Jon as they discuss seeing the bigger picture on things pertaining to Da Baby's controversy. Let's talk about the culture of accountability, do you believe black entertainers are harshly crucify during controversy? And the truths about culture of AIDS. What's Da Tea topics featuring Nelly, 42 Dugg, Lil Nas x, Coco Austin, Michael Che, Lamar Odom & Matt Damon. All this and more! Catch the vibe with us ya heard me ! --- Send in a voice message: https://anchor.fm/whatsdaword/message

OndeckTV
Top Festival Moments

OndeckTV

Play Episode Listen Later Aug 4, 2021 65:10


Listen as Spike Lou and Animal Brown react to 42 Dugg's IG rant, Nas's new album and Congress recognizing Hip-Hop.  Also, we discuss the biggest moments in festival history.   Check out our Patreon for more exclusive content and subscribe here http://patreon.com/reelville New Youtube Alert https://www.youtube.com/ondecktvpodcast Help Reelville get to 1k subscribers on Youtube!! http://youtube.com/reelville

Culture Uncut Podcast
105: KISSING BABIES

Culture Uncut Podcast

Play Episode Listen Later Aug 4, 2021 149:21


NEW Episode "Kissing Babies" As always the fellas provided some much need Positive Black News then shared dialogue on the Drake/Kanye Rollout, IG swindles, Da Baby/42 Dugg being cancelled and much more. Tune in it's The Culture Uncut!!!

The PreGame Podcast
PreGame - S5|Episode 39: "At some point you like it..."

The PreGame Podcast

Play Episode Listen Later Aug 4, 2021 161:02


Join hosts Kylo Ri, DJ Lloyd Willin', Deuce Touché, and David Roughin as they discuss America's "No Mask" Summer, Da Baby's Rolling Loud Homophobic Rant, Isiah Rashad's "The House is Burning", New Tink, 42 Dugg's Strange Viral Video, Simone and the Twisties, the 2021 NBA Free Agency, Colts Camp, and much more! #Blessthebottle for exclusive content and experiences check out the PreGame Podcast on Patreon by visiting http://patreon.com/thepregamepodcast Check out our official website by visiting www.livefromthepregame.com DOWNLOAD. LISTEN. WELCOME TO THE PREGAME.

Accountability
Cancel Culture

Accountability

Play Episode Listen Later Aug 4, 2021 88:48


This week on Accountability Fonz host “Cancel Culture”. Do they deserve to be canceled? Is it fair? What is the end game for canceling someone? And more…..   “What's Poppin” - Da Baby Cancellation, Hockey player ratted out by wife, 42 Dugg kissing his son,  and more….   Follow Us On IG and FB @AccountabilityPodcast  Rate, Comment, & Share Our Podcast

Minimum Wage Heart Throbs
MWH Podcast EP 119 - "Pacifying Da Baby"

Minimum Wage Heart Throbs

Play Episode Listen Later Aug 3, 2021 41:25


That ain't da baby that's a wild ass boy... ketch my latest episode as I discuss Da Baby is losing bag after bag after bag, 42 Dugg's foreplay, my Cubs finally listening to me, my Bulls are Balling out, Raising Kanan updates & more.

Why Should I Give A Damn?
Episode 61 "Cancelation Nation"

Why Should I Give A Damn?

Play Episode Listen Later Aug 3, 2021 71:33


The black delegates must sit down and discuss multiple cancelation submissions after 42 Dugg & Dababy outrage the internet in 2 separate cases of doing too much. We also survey our private FB group and ask people would they attend an R Kelly concert if he were freed today. We were shocked by the answers. Shoutout to the women who took place in our "what women value" social experiment survey. we asked women to put these in order from most to least important when looking for a man. Loyalty, Dick size, looks, money & personality. They gave us an inside look on what most women prioritize in today's society.  Last but not least we take a deep dive into black female athletes leading the way on mental health.

Stars Atmosphere
S3 E37 “WHY NOT”

Stars Atmosphere

Play Episode Listen Later Aug 3, 2021 56:24


The gang is back minus BiteSize, and we have GREENVILLE Podcast Royalty, King Nard, from the INFAMOUS Talk Is Talk Podcast wit us this week. Of course we have to get into the Russell Westbrook trade hence the title of the episode. We discuss the controversial comments made by Da Baby and how the aftermath may look. We definitely get into music and whats currently going on and what we're listening to, we also give Detroit a major shout out. We talk Brittany Renner and PJ Washington and the Simp scandal lmfao. Kamye West makes the cut as well as 42 Dugg and a gang of other funny topics you'll enjoy. Grab a drink and roll some smoke this a instant classic. FOLLOW US ON IG @__BITESIZE @ONLY1_CARTER @STARSATMOSPHERE @STUPIDDOPESTAR DM US ANYTHING U WANT US TO DISCUSS OR IF YOU'RE INTERESTED IN BEING A GUEST!!! --- Support this podcast: https://anchor.fm/starsatmosphere/support

Horribly Good Guys
Episode 63: Is it regular, frequent or just occasional?

Horribly Good Guys

Play Episode Listen Later Aug 3, 2021 117:28


On this episode of HGG, Nate and Paul start off the rails and never get back. The guys talk about the protest at the Olympics and the TX Attorney General disrespecting Simone Biles. Also they discuss the upcoming or not happening lock down. Then they get into relationship talk, and discuss police officers being trash (again). Finally they discuss 42 Dugg the new Prince Album and a few other major/minor facts.

Two Sides of a Coin Podcast
Life of a Side Dude

Two Sides of a Coin Podcast

Play Episode Listen Later Aug 3, 2021 84:11


This week Two Sides gets into if it's wrong to be a side dude, home intrusions and Da Baby getting cancelled. Topics: - Being a side dude - Scary movies - Intruders - Da baby gets cancelled Quick Hits: - Ashton Kutcher and Mila Kunis don't shower much - Shark tank - Tj Ward vs Ron Rivera - Saweetie and McDonald collab - 42 Dugg “licking son” - Caitlyn for Governor Thank you all for listening. If you're new to the podcast please subscribe or tell us what you think about the show. Find us on: website - twosidespodcast.com Instagram & Twitter - @twosidespodcast Facebook - facebook.com/twosidespodcast Youtube - twosidespodcast.com/youtube

Public Enemies Podcast
2BLVCKSHEEP's The Sheep Show - Alphabet Police (Ep. 83)

Public Enemies Podcast

Play Episode Listen Later Aug 3, 2021 86:42


Gold & Gram return for episode 83! Starting off with Isaiah Rashad's new album (6:10), women that give B+ head (15:30), new Silk Sonic single (25:25), Yung Bleu declares classic despite support (32:50), Kanye & Nas new albums this week (38:45), Drake announces CLB is done (40:50), Alfonso Ribeiro feels lack of support from Black community (49:10), Da Baby, 42 Dugg face backlash (55:15), Tyler The Creator at Lollapalooza, Future + Young Thug & more (1:14:30) Intro - Isaiah Rashad (9-3 Freestyle) | https://youtu.be/nS4HQgp-W4Y Outro - Rich The Kid (Prada) | https://youtu.be/0RIBhxTA3Jo

The GOTDamn Kylan Show
S2 E37 The GOTDamn Call-In Show, 42 Dugg, Rape Culture, Dusty of the Day

The GOTDamn Kylan Show

Play Episode Listen Later Aug 3, 2021 25:22


Today we talked about The GOTDamn Call-In Show. We talked about 42 Dugg. We talked about Rape Culture. And we had 5 Dusty's of the Day.

Voices of Misery Podcast
Overly affectionate rapper and his son, paranoid man shooting in his house gets arrested, loud music beatdown and more!

Voices of Misery Podcast

Play Episode Listen Later Aug 3, 2021 105:12


The nerd hates loud music, admitting his age, idiots lay on a hammock high up on power lines for some reason, 42 Dugg loves his son way too much, a trans internet influencer loves his/her mother way too much, a man shoots at his imaginary squatters and gets arrested and more! Twitter: @voicesofmisery mewe: @voicesofmisery Parler: voices of misery Gmail: voicesofmiserypodcast@gmail.com Instagram: voicesofmiserypodcast Discord server: voices of misery podcast https://tinyurl.com/VoMPodcastTees

3LiveREWIND
220: #MANswers: How can I tell my man I started an Only Fans behind his back?? 42 Dugg shows his son some love & it goes way left, & Rolling Stone's 100 Greatest Videos of all time list pisses everybody off...

3LiveREWIND

Play Episode Listen Later Aug 2, 2021 69:57


The Cake Dish Podcast
Episode 109 - DaBaby & 42 Dugg Canceled?

The Cake Dish Podcast

Play Episode Listen Later Aug 2, 2021 59:04


ShaunDrika dishes on 42 Dugg & Da Baby recent actions and comments. Should they be canceled or is everyone just overreacting? Let's dish! --- Support this podcast: https://anchor.fm/thecakedish/support

The Tonka Toy Podcast
08-01-21 Clean Vibe

The Tonka Toy Podcast

Play Episode Listen Later Aug 1, 2021 35:35


TRACK 01 AUDIO     TITLE "Defendant"     PERFORMER "Plies   TRACK 02 AUDIO     TITLE "Trenches Reloaded (feat  Peanut Da Don & T I)"     PERFORMER "Hustle Gang feat. Peanut Da Don & T.I."   TRACK 03 AUDIO     TITLE "Riata Dada"     PERFORMER "EST Gee"   TRACK 04 AUDIO     TITLE "FWM"     PERFORMER "Rara"   TRACK 05 AUDIO     TITLE "Nah Nah Nah (Remix) [feat. DaBaby & 2 Chainz] (feat  DaBaby & 2 Chainz)"     PERFORMER "Kanye West"   TRACK 06 AUDIO     TITLE "Non Stop"     PERFORMER "Paper Route Empire & Big Moochie Grape"   TRACK 07 AUDIO     TITLE "Bricks 4 The High (feat  Jim Jones & Damon Dash)"     PERFORMER "Dem Franchize Boyz feat. Jim Jones & Damon Dash"   TRACK 08 AUDIO     TITLE "Deebo"     PERFORMER "Courtney Bell"   TRACK 09 AUDIO     TITLE "Wick Wick (Clean)"     PERFORMER "Nardo Wick"   TRACK 10 AUDIO     TITLE "Put'em"     PERFORMER "Baby D feat. Pastor Troy & Sean P."   TRACK 11 AUDIO     TITLE "I Ride"     PERFORMER "DJ Khaled"   TRACK 12 AUDIO     TITLE "Turnest Nigga In The City"     PERFORMER "42 Dugg"   TRACK 13 AUDIO     TITLE "Imma Shine"     PERFORMER "Mia X"    TRACK 14 AUDIO     TITLE "5500 Degrees (feat  Lil Baby & 42 Dugg & Rylo Rodriguez)"     PERFORMER "EST Gee feat. Lil Baby, 42 Dugg & Rylo Rodriguez feat. Lil Baby & 42 Dugg & Rylo Rodriguez"   TRACK 15 AUDIO     TITLE "Excuse Me"     PERFORMER "Mozzy"   TRACK 16 AUDIO     TITLE "I'm The Man (feat  Sonny Digital)"     PERFORMER "50 Cent feat. Sonny Digital"   TRACK 17 AUDIO     TITLE "Let's Get This Paper (Album Version (Edited))"     PERFORMER "Rich Boy"   TRACK 18 AUDIO     TITLE "100 Years"     PERFORMER "Plies"   TRACK 19 AUDIO     TITLE "Kept It Too Real"     PERFORMER "Plies"

The Elements Podcast
Episode 120: The Views and Opinions…

The Elements Podcast

Play Episode Listen Later Jul 28, 2021 94:39


We were really on bs…. No big sis this week… Black business check in, Bucks in 6, Kanye West listening party and more foolishness. Tune In. Who Caught the Body: 5500 Degrees by EST Gee Feat. 42 Dugg, Lil Baby and Rylo Rodriguez

The OffSpace Podcast
Episode 121 | "Donda Party"

The OffSpace Podcast

Play Episode Listen Later Jul 27, 2021 71:12


This week the boys talk about EST Gee's project (of course), new & upcoming music, being authentic, the Olympics, Kanye's listening party and so much more. Tune in to see what's up! Heat Check: UKICO - Temporary Amnesia, EST Gee ft. Lil Baby, 42 Dugg & Rylo Rodriguez - 5500 Degrees Instagram.com/theoffspacepodcast/ twitter.com/NotChuka twitter.com/EzugoO twitter.com/theoffspace

Dope Info Pod
Episode 121: Black Was First

Dope Info Pod

Play Episode Listen Later Jul 25, 2021 63:24


On This Episode The Guys Discuss Breaking Generational Curses, A Super Coon's Plantation Wedding Photos, NFL's Strict Covid Regulations, & Kanye's Listening Party. Special Guest Host: Parker Intro: EST Gee feat. 42 Dugg, Lil Baby, & Rylo Rodriguez ~ 5500 Degrees --- Send in a voice message: https://anchor.fm/dopeinfopod/message Support this podcast: https://anchor.fm/dopeinfopod/support

The Tonka Toy Podcast
07/23/2021 10:09 P.M 1st Up Radio Mix

The Tonka Toy Podcast

Play Episode Listen Later Jul 24, 2021 42:28


Tonka The Dj TRACK 01 AUDIO     TITLE "Never Runnin Out Of Money"     PERFORMER "Gucci Mane feat. E-40"     INDEX 01 00:00:00   TRACK 02 AUDIO     TITLE "Mista"     PERFORMER "BIG30"     INDEX 01 02:13:00   TRACK 03 AUDIO     TITLE "MOVE"     PERFORMER "Duke Deuce"     INDEX 01 03:51:00   TRACK 04 AUDIO     TITLE "Sky Dweller"     PERFORMER "EST Gee"     INDEX 01 04:53:00   TRACK 05 AUDIO     TITLE "Who Want Smoke (Clean)"     PERFORMER "Nardo Wick"     INDEX 01 06:27:00   TRACK 06 AUDIO     TITLE "Colombian Necktie"     PERFORMER "Young Nudy"     INDEX 01 08:49:00   TRACK 07 AUDIO     TITLE "Bigger Than Life Or Death"     PERFORMER "EST Gee"     INDEX 01 10:36:00   TRACK 08 AUDIO     TITLE "Bust Down"     PERFORMER "Gucci Mane"     INDEX 01 11:42:00   TRACK 09 AUDIO     TITLE "2 Chains"     PERFORMER "G Herbo"     INDEX 01 13:45:00   TRACK 10 AUDIO     TITLE "Plastic (feat  Icewear Vezzo & Rio Da Yung OG)"     PERFORMER "Lil Yachty feat. Icewear Vezzo & Rio Da Yung OG"     INDEX 01 15:50:00   TRACK 11 AUDIO     TITLE "The Sit Down (feat  Babyface Ray)"     PERFORMER "Icewear Vezzo feat. Babyface Ray"     INDEX 01 18:45:00   TRACK 12 AUDIO     TITLE "When We Ride"     PERFORMER "Tokyo Jetz"     INDEX 01 20:12:00   TRACK 13 AUDIO     TITLE "Beat The Speaker"     PERFORMER "Pop Smoke"     INDEX 01 21:17:00   TRACK 14 AUDIO     TITLE "No Go"     PERFORMER "24Heavy"     INDEX 01 22:08:00   TRACK 15 AUDIO     TITLE "Dark Clouds"     PERFORMER "Yung Bleu"     INDEX 01 23:04:00   TRACK 16 AUDIO     TITLE "We Gonna Make It Happen"     PERFORMER "Lil Duke & Young Stoner Life feat. Lil Kee"     INDEX 01 24:08:00   TRACK 17 AUDIO     TITLE "shop (feat  DaBaby)"     PERFORMER "Toosii feat. DaBaby"     INDEX 01 25:59:00   TRACK 18 AUDIO     TITLE "Ape Shit"     PERFORMER "Unfoonk feat. G Herbo"     INDEX 01 28:24:00   TRACK 19 AUDIO     TITLE "Hard For The Next"     PERFORMER "Moneybagg Yo"     INDEX 01 29:28:00   TRACK 20 AUDIO     TITLE "No Friends (feat  Yo Gotti & 42 Dugg)"     PERFORMER "EST Gee feat. Yo Gotti & 42 Dugg"     INDEX 01 30:39:00   TRACK 21 AUDIO     TITLE "Way More Close (Stuck In A Box)"     PERFORMER "Yung Bleu"     INDEX 01 32:58:00   TRACK 22 AUDIO     TITLE "Bigger Things"     PERFORMER "Morray"     INDEX 01 35:46:00   TRACK 23 AUDIO     TITLE "Baddest"     PERFORMER "Yung Bleu"     INDEX 01 37:31:00   TRACK 24 AUDIO     TITLE "I'm Ballin' Man"     PERFORMER "Drama"     INDEX 01 39:51:00

Young Hip-Hop Heads
Ep. 047 - CALL ME IF YOU GET LOST

Young Hip-Hop Heads

Play Episode Listen Later Jul 22, 2021 52:00


It's been over a month. Arash and Spex have been very busy enjoying a beautiful Chicago summer. And with summer comes plenty of music. They dive into their notable tracks from the last 5 weeks including songs from Big Sean, Jack Harlow, IDK, Lil Uzi Vert, Pop Smoke and more. The big news is the front runner for album of the year, Tyler the Creator's "CALL ME IF YOU GET LOST." The episode concludes with some massive news about Kanye. Tune in and share! Songs of the Week playlist: https://open.spotify.com/playlist/5w6yjljM9EyYuY1IedjfMy?si=ri2XoA0xT4-vnDjhhCClmQ Follow, subscribe, rate, and review on Apple Podcasts & Spotify. Follow us on Instagram and Twitter! IG: https://www.instagram.com/younghiphopheads/?hl=en Twitter: https://twitter.com/youngHHheads

Marc's Essential Mix Tape Radio Show
Episode 1669: Marc's Essential Mix Tape #1669 Pooh Sheisty, MO3 Polo G Juicy J Lil Durk Lil Baby Ski Mask

Marc's Essential Mix Tape Radio Show

Play Episode Listen Later Jul 21, 2021 37:24


Can't You Hear Me Knocking  | The Rolling StonesType Shit   | Migos & Cardi BEvery Chance I Get  | DJ Khaled f. Lil Baby & Lil DurkMaybach  | 42 Dugg ft FutureVaccine  | LogicFire Hazard  | Ski Mask The Slump GodCome And Go  | Juice WRLD and MarshmelloHot Shower  | Chance The Rapper f. MadeinTYO & DaBabyBeat Box  | SpotemGottem f. DaBaby & Pooh ShiestyOutside  | MO3 & OG Bobby BillionsRAPSTAR  | Polo GTell Em No  | Juicy J, Pooh ShiestyWhole Lotta Money  | BIAGirlfriend  | Kap G feat. Ty Dolla $ign & Quavo2 Chains  | G Herbo

The OffSpace Podcast
Episode 120 | "Bet on yourself"

The OffSpace Podcast

Play Episode Listen Later Jul 20, 2021 71:57


This week the boys dive into entrepreneurship vs the 9-5, Lil Nas X, Megan thee stallion & Naomi Osaka's Sport's Illustrated covers, NBA Finals, Space Jam & so much more. Tune in to see what's up this week! Heat Check: 42 Dugg ft. EST Gee - Rose Gold, Funky Galileo - Sure Sure Instagram.com/theoffspacepodcast/ twitter.com/NotChuka twitter.com/EzugoO twitter.com/theoffspace

Monologato Podcast
Pop Smoke. 21 Savage, 42 Dugg - Bout A Million

Monologato Podcast

Play Episode Listen Later Jul 16, 2021 4:34


Pop Smoke ci insegna la capacità di comunicare quello che ha dentro con concetti che raccontano l'esatto opposto e questo si chiama talento. Learn more about your ad choices. Visit megaphone.fm/adchoices

The Tonka Toy Podcast
7/12/21 Rado Mix

The Tonka Toy Podcast

Play Episode Listen Later Jul 13, 2021 40:05


PERFORMER "Tonka Toy" TITLE "20:34" FILE "7-12-2021.mp3" MP3   TRACK 01 AUDIO     TITLE "Hood Blues (feat  Westside Gunn & Benny The Butcher & Conway The Machine)"     PERFORMER "DMX feat. Westside Gunn & Benny The Butcher & Conway The Machine"     INDEX 01 00:00:00   TRACK 02 AUDIO     TITLE "Paid the Fine"     PERFORMER "Young Stoner Life feat. Lil Baby & YTB Trench"     INDEX 01 01:18:00   TRACK 03 AUDIO     TITLE "Big Tuh (Clean)"     PERFORMER "LOU WILL"     INDEX 01 05:05:00   TRACK 04 AUDIO     TITLE "How I'm Coming (Remix)"     PERFORMER "Icewear Vezzo"     INDEX 01 07:32:00   TRACK 05 AUDIO     TITLE "Clusters (Clean)"     PERFORMER "Big Moochie Grape"     INDEX 01 09:02:00   TRACK 06 AUDIO     TITLE "Ball If I Want To (Clean)"     PERFORMER "DaBaby"     INDEX 01 10:32:00   TRACK 07 AUDIO     TITLE "Free Ride"     PERFORMER "Money Man"     INDEX 01 11:59:00   TRACK 08 AUDIO     TITLE "Director"     PERFORMER "Money Man"     INDEX 01 13:28:00   TRACK 09 AUDIO     TITLE "Way Back"     PERFORMER "Lil 1 DTE"     INDEX 01 14:21:00   TRACK 10 AUDIO     TITLE "Mini Me"     PERFORMER "Young Nudy"     INDEX 01 15:42:00   TRACK 11 AUDIO     TITLE "2040"     PERFORMER "Lil Baby"     INDEX 01 17:37:00   TRACK 12 AUDIO     TITLE "Do Better"     PERFORMER "Coi Leray"     INDEX 01 20:13:00   TRACK 13 AUDIO     TITLE "To Be Honest"     PERFORMER "Lil Durk"     INDEX 01 21:38:00   TRACK 14 AUDIO     TITLE "Make A Sale"     PERFORMER "Blacc Zacc"     INDEX 01 23:19:00   TRACK 15 AUDIO     TITLE "Watch Out for the Narcs"     PERFORMER "NLE Choppa"     INDEX 01 24:33:00   TRACK 16 AUDIO     TITLE "Lit"     PERFORMER "Mo3 feat. YFN Lucci"     INDEX 01 26:34:00   TRACK 17 AUDIO     TITLE "greater storm"     PERFORMER "Toosii"     INDEX 01 28:24:00   TRACK 18 AUDIO     TITLE "Turnest Nigga In The City"     PERFORMER "42 Dugg"     INDEX 01 30:34:00   TRACK 19 AUDIO     TITLE "Stuck In The Streets"     PERFORMER "HIT-BOY"     INDEX 01 32:23:00   TRACK 20 AUDIO     TITLE "Slime Mobb (feat  Marlo & Lil Keed)"     PERFORMER "24Heavy feat. Marlo & Lil Keed"     INDEX 01 33:03:00   TRACK 21 AUDIO     TITLE "Late At Night (Clean)"     PERFORMER "Roddy Ricch"     INDEX 01 34:49:00   TRACK 22 AUDIO     TITLE "f**k marry kill"     PERFORMER "Toosii"     INDEX 01 36:40:00

Notorious Mass Effect
"TYLER THE CREATOR - CALL ME IF YOU GET LOST"

Notorious Mass Effect

Play Episode Listen Later Jul 1, 2021 25:36


Tyler, the Creator Releases New Album Call Me If You Get Lost. The Igor follow-up features Lil Wayne, Lil Uzi Vert, Pharrell, 42 Dugg, DJ Drama, Ty Dolla $ign, Domo Genesis, NBA YoungBoy, and more. Tyler, the Creator has released his new album Call Me If You Get Lost. According to Spotify, the album includes guest spots from Lil Wayne (“Hot Wind Blows”), Lil Uzi Vert and Pharrell (“Juggernaut”), Ty Dolla $ign and YoungBoy Never Broke Again (“WusYaName”), 42 Dugg (“Lemonhead”), Domo Genesis (“Manifesto”), and more. DJ Drama is heavily featured across the album, and Jamie xx is credited as a co-producer on “Rise!” In an Instagram story, Tyler noted Jay Versace's contribution to “Safari.” Call Me If You Get Lost is the follow-up to Tyler, the Creator's 2019 Grammy-winning LP Igor, which took home the Best Rap Album trophy at the 2020 awards ceremony. Tyler's new album was preceded by a number of teasers, beginning with a series of billboards that appeared in cities like Los Angeles, London, Paris, Berlin, and more. The billboards were emblazoned with the LP title (before it had been announced), and featured a hotline number that led to a mysterious pre-recorded message. Tyler then shared a teaser titled “Side Street” which also made reference to the album title. Following his initial teasers, Tyler shared visuals for two songs from Call Me If You Get Lost: “Lumberjack” and “WusYaName.” Earlier this week, Tyler shared yet another teaser; a skit called “Brown Sugar Salmon.” What's going on Internet, Analytic here aka Dreamz and I would like to welcome you to mine, which I call the Notorious Mass Effect Podcast! I am your Hip-Hop / Gaming News source with a little bit of R&B mixed in. FOR EPISODE 56: “DOJA CAT - PLANET HER” “TYLER THE CREATOR - CALL ME IF YOU GET LOST" “WINDOWS 11” & “DABABY - RED LIGHT GREEN LIGHT” But before that make sure to Click my Linktree in my bio to access my social medias and follow, to keep up with my latest activities, if you want to financially support the show click my cash app link located towards the top of my linktree as it helps the show overall, also make sure to share this podcast as this helps the show reach more people so we can grow together and effect the masses! --- Support this podcast: https://anchor.fm/masseffect/support

Trevor Jackson Podcast
Tyler The Creator | CALL ME WHEN YOU GET LOST | Review & Reaction

Trevor Jackson Podcast

Play Episode Listen Later Jun 27, 2021 24:50


This 16 track album , hosted by DJ Drama call me if you get lost , gets a 4.5/ 5 from me a unexpected great project early this summer artist going to have to come with it after this release easily AOTY so far & I thought Cole album would've been hard to touch but let me quit comparing these guys and salute the growth 1. SIR BAUDELAIRE
2. CORSO
3. LEMONHEAD (Feat. 42 Dugg)
4. WUSYANAME (Feat. YoungBoy Never Broke Again & Ty Dolla $ign)
5. LUMBERJACK
6. HOT WIND BLOWS (Feat. Lil Wayne)
7. MASSA
8. RUNITUP (Feat. Teezo Touchdown)
9. MANIFESTO (Feat. Domo Genesis)
10. SWEET / I THOUGHT YOU WANTED TO DANCE (Feat. Brent Faiyaz & Fana Hues)
11. MOMMA TALK
12. RISE! (Feat. DAISY WORLD)
13. BLESSED
14. JUGGERNAUT (Feat. Lil Uzi Vert & Pharrell Williams)
15. WILSHIRE
16. SAFARI #tylerthecreator #albumreview #5star #djdrama #losangeles #atlanta #knoxville #CMWYGL #callmewhenyougetlost --- This episode is sponsored by · Anchor: The easiest way to make a podcast. https://anchor.fm/app

The Joe Budden Podcast with Rory & Mal
Episode 450 | "Got Time Today"

The Joe Budden Podcast with Rory & Mal

Play Episode Listen Later Jun 26, 2021 123:49


On this episode: Joe & the guys discuss new music from Tyler The Creator (13:45), J. Cole comparisons (14:15), and Pharell's verse being the best on the project (21:30). They speak to their current standings on strip club experiences (36:00), Doja Cat's new album (41:10), Jazmine Sullivan's latest single (42:55), and the upcoming Bow Wow vs. Soulja Boy Verzuz battle (51:20). Britney Spears addresses her conservatorship (56:05), Justin Timberlake makes a statement (1:00:20), and John McAfee is found dead with accompanied conspiracy theories (1:14:20). Kenya Barris turns down a $100M deal from Netflix (1:24:45), Derek Chauvin receives a 22.5 year sentence for killing George Floyd (1:44:20), and more.   For full video episodes & exclusive content: become a Patron of the The Joe Budden Podcast at www.patreon.com/JoeBudden   Sleeper Picks Joe | Dee Gatti - “Art Of Seduction”    Ice | Tyler The Creator - “LEMONHEAD” (Ft. 42 Dugg)   Ish | ROCXNOIR - “Hyperbolic Time Chamber”    Parks | Blackalicious - “Make You Feel That Way”

Young Hip-Hop Heads
Ep. 046 - Voice of the Heroes, Culture III, & Hall of Fame

Young Hip-Hop Heads

Play Episode Listen Later Jun 17, 2021 50:02


After a bit of a hiatus, Arash & Spex are back! They share stories from their respective trips out of town, then go right into music. Tons of Songs of the Week from the likes of Megan Thee Stallion, 42 Dugg, Birdman, Roddy Ricch and more. They wrap up this week's episode by breaking down 3 notable albums from the last couple weeks. Lil Baby & Lil Durk's "Voice of the Heroes", Migos - "Culture III" and Polo G's "Hall of Fame." Join us! Songs of the Week playlist: https://open.spotify.com/playlist/5w6yjljM9EyYuY1IedjfMy?si=ri2XoA0xT4-vnDjhhCClmQ Follow, subscribe, rate, and review on Apple Podcasts & Spotify. Follow us on Instagram and Twitter! IG: https://www.instagram.com/younghiphopheads/?hl=en Twitter: https://twitter.com/youngHHheads

DX Daily
S E124: Kendrick Lamar & Travis Scott Headline Day N Vegas Festival, Nicki Minaj Curves T-Pain, Famous Dex Arrested

DX Daily

Play Episode Listen Later Jun 15, 2021 14:10


On today's DX daily, Ashia Skye and Ayeeedubb discuss all of the jam-packed festival lineups that have just been announced this festival season! Kendrick Lamar, Travis Scott, Tyler the Creator, Sza, and more will take the stage at Day N Vegas Festival, while Lil Baby, Justin Bieber, Roddy Ricch, and DX Rising Stars Morray and 42 Dugg will perfom at Made in America in Philadelphia. Other topics include Famous Dex's recent arrest while in court, and Nicki Minaj ghosting T-Pain before they were able to record a song together back in 2007.

Jukes and Jumpers
Jukes and Jumpers Ep. 42 Dugg - 3 Questions with Answers and NBA Playoffs

Jukes and Jumpers

Play Episode Listen Later Jun 15, 2021 27:50


The NBA Playoffs are heating up. Collin and Joey also have their first segment of three questions with answers. --- Support this podcast: https://anchor.fm/collin-and-joey/support

Big Boy On Demand
42 Dugg in the Neighborhood, Logic Is Here ICYMI and Sex-O-Meter

Big Boy On Demand

Play Episode Listen Later Jun 3, 2021 62:43


42 Dugg in the Neighborhood, Logic Is Here ICYMI and Sex-O-Meter

Chill University
EP.66 ISSA HURRICANE

Chill University

Play Episode Listen Later May 31, 2021 122:15


In today's class of ChillU, its Memorial Day weekend, but class is still in session! The fellas discuss the following; -Fellas catch up & reminisce on our first time meeting some of each other -Whats important to us for a woman to bring to the table? (out of 5 different options) -Are we picking up money if another man throws money in the club? Mad at our girl for picking up the money? -Whats in our “date night” bag? -We discuss our vices/addictions -Afrer the break-up do we unfollow? -TV (Friends reuniuon, Martin debate, fav white show, The Chi, The Circle, Army of the Dead) -Who has/will have the Summer 2021 anthem? -New Music (DMX, 42 Dugg, Yachty, Doja) -Our GOT/Snowfall challenge -Bow Wow v Big Soulja Verzuz talk -& more randomness! Word of the Day: Vice INTRO > Lil Wayne - Me & My Drank ISS > Dom Kennedy - Watermelon Sundae OUTRO > Femdot - Rap City (feat. Smino) --- Send in a voice message: https://anchor.fm/chilluniversity/message

How Long Gone
191. - Chris Black & Jason Stewart

How Long Gone

Play Episode Listen Later May 31, 2021 53:18


One on one pod today Chris and Jason chat about Memorial Day, some new footwear styles at The Row, Chris cleaning out his closets, TJ’s Anniversary staycation, TJ’s new toy, Air Bnb getaways, dinner at Birdie G’s, TJ’s weight gain, Chris’ dessert deprivation continues, courting new podcast guests, 42 Dugg’s height, dog walking, working out without workout shoes, new hats coming, the Friends reunion, and polo shirts on the horizon. twitter.com/donetodeath twitter.com/themjeans --- Support this podcast: https://anchor.fm/howlonggone/support

Shoot Your Shot Pod
Episode 164: Who Are the Real H**s?

Shoot Your Shot Pod

Play Episode Listen Later May 28, 2021 95:30


C. Diddy (@cdiddy513) & co-host Alex (@allienichole_)recap the events of the last week, including: Larsa Pippen airing out her former boyfriend, discussing how men may be the real whores, student loans being a scam, learning not to play in people's marriages and much more on this very special episode. Intro: 42 Dugg (feat. Future) - Maybach Outro: Dear Silas - Shoot My Shot *we do not own rights to this music or audio* Continue to communicate with us using the #ShootYourShotPod hashtag. And follow us on: Twitter (@SYSPodcast), Instagram (@shootyourshotpod) and Facebook (Shoot Your Shot Pod) If you have a question you want us to discuss on the podcast, email us at shootyourshotpod@gmail.com

UNHEARD
Episode 64 | "Steve Harvey"

UNHEARD

Play Episode Listen Later May 26, 2021 53:08


Chance kicks off episode 64 by honoring the artist of the decade, which causes Taj to ask who the runner-up artist of the decade would be and who's going to be the artist of the century(0:41). Taj leads the way on reviewing the latest from 42 Dugg(9:51) and Mach-Hommy(16:13). Chance and Vance critique the media in support of Kwame Brown(20:06). Bow Wow vs. Soulja Boy Verzuz predictions(27:24). Does deep fake technology pose a threat to artists(35:24), and are albums better with or without features(41:37). Plus much more! This week's music played in order is NoName "Ace", Mach-Hommy "Au Revoir", Stove God Cooks "Dope" and RINI "Aphrodite".

The Breakfast Club
Taking Accountability ( 42 Dugg and Dr Rheeda Walker interview)

The Breakfast Club

Play Episode Listen Later May 24, 2021 92:20


Today on the show we had rapper 42 Dugg stop by where he spoke about perfecting his raps in prison, shooting dice too much, linking with Yo Gotti and more. Also, they had Dr. Rheeda Walker talks black mental health, overcoming your weaknesses, suicide crisis and more. And Charlamagne gave "Donkey of the Day" to himself for his comments on Kwame Brown. Learn more about your ad-choices at https://www.iheartpodcastnetwork.com

MOB RADIO
You Talk Shit With Those Feet 2

MOB RADIO

Play Episode Listen Later May 21, 2021 64:24


On this episode: Milagro Gramz discusses Billy Porter coming out and revealing his HIV+ diagnosis (18:15) Porsha thinks Simon is soooo hot while his alleged side piece squared claims they had a wild tryst and out sniffing lines of cocaine during an exclusive interview with ItsOnSite (23:23) Wendy Williams decided to show her feet while supporting lymphedema and the world was left wanting a trigger warning (35:58) Joseline addresses her feelings towards Wendy Williams and defends her stance (43:45) Big Paper had a big fall on the charts (47:40) Erica Banks was caught in 4k talking to herself (59:27) Nicki Minaj decided to snatch our wigs AGAIN with a behind the scenes look at some “Seeing Green” footage, we also got a look at Papa Bear (1:00:00) Future throws a slug at Lori Harvey in a new song with 42 Dugg (1:06:48) Jason Lee was the one left gagging after guest Angela Stanton gave him. Dose of his own medicine (1:17:40) Joe Budden apologizes to Olivia Dope again, but Mob Radio exclusively breaks the news that he may have been dropped from Cash App. (1:39:26) Kwame Brown ain't letting nothing slide and that was the case for his latest victims, The Breakfast Club (1:50:02) (Other topics discussed throughout include: Mulatto's name change, JT confirms matching tats, & MORE!

MOB RADIO
You Talk Shit With Those Feet 1

MOB RADIO

Play Episode Listen Later May 21, 2021 85:52


On this episode: Milagro Gramz discusses Billy Porter coming out and revealing his HIV+ diagnosis (18:15) Porsha thinks Simon is soooo hot while his alleged side piece squared claims they had a wild tryst and out sniffing lines of cocaine during an exclusive interview with ItsOnSite (23:23) Wendy Williams decided to show her feet while supporting lymphedema and the world was left wanting a trigger warning (35:58) Joseline addresses her feelings towards Wendy Williams and defends her stance (43:45) Big Paper had a big fall on the charts (47:40) Erica Banks was caught in 4k talking to herself (59:27) Nicki Minaj decided to snatch our wigs AGAIN with a behind the scenes look at some “Seeing Green” footage, we also got a look at Papa Bear (1:00:00) Future throws a slug at Lori Harvey in a new song with 42 Dugg (1:06:48) Jason Lee was the one left gagging after guest Angela Stanton gave him. Dose of his own medicine (1:17:40) Joe Budden apologizes to Olivia Dope again, but Mob Radio exclusively breaks the news that he may have been dropped from Cash App. (1:39:26) Kwame Brown ain't letting nothing slide and that was the case for his latest victims, The Breakfast Club (1:50:02) (Other topics discussed throughout include: Mulatto's name change, JT confirms matching tats, & MORE!