Podcasts about File

Share on
Share on Facebook
Share on Twitter
Share on Reddit
Copy link to clipboard
  • 2,924PODCASTS
  • 9,291EPISODES
  • 39mAVG DURATION
  • 3DAILY NEW EPISODES
  • Oct 22, 2021LATEST

POPULARITY

20112012201320142015201620172018201920202021


Best podcasts about File

Show all podcasts related to file

Latest podcast episodes about File

Inside Hoffmaster’s Head
One For The “Even When I Win I Lose” File

Inside Hoffmaster’s Head

Play Episode Listen Later Oct 22, 2021 33:19


In Jim's world, commercial bookings giveth…and commercial bookings taketh away. --- Support this podcast: https://anchor.fm/jim-hoffmaster/support

PSU.com - PlayStation Unchained
PlayStation Unchained File Corrupted

PSU.com - PlayStation Unchained

Play Episode Listen Later Oct 21, 2021 27:09


Due to issues with windows update, the first 50 minutes were lost, and so we had to go back and rerecord the entire show so we ended up chatting about DC fandom with the hype for the new batman and suicide squad game

Camp Here & There
FILE 19. The Anxiety of the Trees

Camp Here & There

Play Episode Listen Later Oct 21, 2021 27:23


Audio data from various sources, detailing the events which occurred at SITE2 and SITE1 on day 968. MAJOR INSIGHT INTO: • Thought process and mindset of ENTITY1 • Thought process and mindset of ENTITY2 MINOR INSIGHT INTO: • Continued incompetence of AGENT15 & AGENT16 IMPORTANT NOTES: • I believe this is the first time ENTITY2 has visited SITE1 since the limn (and may I note, the fact that ENTITY5 built its altar there cannot be a coincidence.) The proximal effects ENTITY2 described remind me of hyperoxia. Disclaimer: Camp Here & There is intended for audiences aged 16+. The story deals with mature themes and graphic horror which may not be suitable for all audiences. Viewer discretion is advised. Performances by Blue Mayfield, Tom Antonellis, Gianni Matragrano, and Nicholas Belov. Original music created by Will Wood. WEBSITE (transcripts available) https://mayfieldandbelov.com/ PATREON https://www.patreon.com/mayfieldandbelov DISCORD https://discord.gg/tT3Ah7x6tW INSTAGRAM @ mayfieldandbelov TWITTER @ mayfieldnbelov

The Tonka Toy Podcast
1St Up Radio ( New Orleans Bounce Mix)

The Tonka Toy Podcast

Play Episode Listen Later Oct 20, 2021 43:21


TITLE "21:50" FILE "10-19-xbox.mp3" MP3   TRACK 01 AUDIO     TITLE "That's My Juvie"     PERFORMER "Ms. Tee"     INDEX 01 00:00:00   TRACK 02 AUDIO     TITLE "Drag Rap (12" Single Version) (12  Single Version)"     PERFORMER "The Showboys"     INDEX 01 01:54:00   TRACK 03 AUDIO     TITLE "Holy Grail (Nola Bounce Mix)"     PERFORMER "Legendary DJs"     INDEX 01 03:20:00   TRACK 04 AUDIO     TITLE "Think Like a Man (New Orleans Bounce Remix)"     PERFORMER "B.Ford"     INDEX 01 04:24:00   TRACK 05 AUDIO     TITLE "Thank You (Nola Bounce Mix)"     PERFORMER "Legendary DJs"     INDEX 01 05:11:00   TRACK 06 AUDIO     TITLE "Drunk in Love (New Orleans Bounce Remix)"     PERFORMER "B.Ford"     INDEX 01 06:03:00   TRACK 07 AUDIO     TITLE "What About Us"     PERFORMER "B.Ford feat. Mr. Fatman & Jimi Clever"     INDEX 01 07:26:00   TRACK 08 AUDIO     TITLE "Scars to Your Beautiful (SBZ Rickey Mixx)"     PERFORMER "B-Sharp"     INDEX 01 09:16:00   TRACK 09 AUDIO     TITLE "Money Fresh Brown Beat"     PERFORMER "Various artists"     INDEX 01 10:02:00   TRACK 10 AUDIO     TITLE "Cheers Theme Song (New Orleans Bounce Mix)"     PERFORMER "Various artists"     INDEX 01 11:15:00   TRACK 11 AUDIO     TITLE "Shape of You (Nola Bounce Remix)"     PERFORMER "Legendary DJs"     INDEX 01 11:58:00   TRACK 12 AUDIO     TITLE "Lucid Dreams (Nola Bounce Mix)"     PERFORMER "Legendary DJs"     INDEX 01 13:01:00   TRACK 13 AUDIO     TITLE "Circles"     PERFORMER "B.Ford"     INDEX 01 14:12:00   TRACK 14 AUDIO     TITLE "The Worst (Radio Edit) (New Orleans Bounce Remix)"     PERFORMER "B.Ford"     INDEX 01 15:15:00   TRACK 15 AUDIO     TITLE "Permission"     PERFORMER "B.Ford"     INDEX 01 16:06:00   TRACK 16 AUDIO     TITLE "We Are One (DJ Westbank Red Bounce Mix)"     PERFORMER "Dj WestBank Red"     INDEX 01 16:50:00   TRACK 17 AUDIO     TITLE "Smoking Gun"     PERFORMER "Various artists"     INDEX 01 17:48:00   TRACK 18 AUDIO     TITLE "Iont B Carin"     PERFORMER "Messy Mya feat. Big Jella & Ha-Sizzle"     INDEX 01 18:55:00   TRACK 19 AUDIO     TITLE "Rolling in the Deep (New Orleans Bounce Remix)"     PERFORMER "Various artists feat. J-Dawg"     INDEX 01 20:24:00   TRACK 20 AUDIO     TITLE "Can't Raise a Man (New Orleans Bounce Remix)"     PERFORMER "B.Ford"     INDEX 01 21:19:00   TRACK 21 AUDIO     TITLE "Adorn (New Orleans Bounce Mix)"     PERFORMER "Legendary DJs"     INDEX 01 22:21:00   TRACK 22 AUDIO     TITLE "Not Gon Cry (DJ Poppa & Blaza Bounce Mix)"     PERFORMER "DJ Poppa & Blaza"     INDEX 01 23:12:00   TRACK 23 AUDIO     TITLE "Brown Skin Girl (Nola Bounce Mix)"     PERFORMER "Legendary DJs"     INDEX 01 24:01:00   TRACK 24 AUDIO     TITLE "Say It"     PERFORMER "B.Ford"     INDEX 01 25:47:00   TRACK 25 AUDIO     TITLE "I Luv This Shit (New Orleans Bounce Remix)"     PERFORMER "B.Ford"     INDEX 01 26:53:00   TRACK 26 AUDIO     TITLE "Set Fire to the Rain (New Orleans Bounce Remix)"     PERFORMER "B.Ford"     INDEX 01 27:59:00   TRACK 27 AUDIO     TITLE "4 Minutes (DJ Gimmie Dat Beat Bounce Mix)"     PERFORMER "DJ Gimmie Dat Beat"     INDEX 01 28:58:00   TRACK 28 AUDIO     TITLE "Drip Too Hard (Bounce Mix)"     PERFORMER "B-Sharp"     INDEX 01 29:58:00   TRACK 29 AUDIO     TITLE "Why I Love You (B-Sharp Bounce Mix)"     PERFORMER "B-Sharp"     INDEX 01 30:58:00   TRACK 30 AUDIO     TITLE "Ring (Bounce Mix)"     PERFORMER "B-Sharp"     INDEX 01 31:58:00   TRACK 31 AUDIO     TITLE "Rise Up (Nola Bounce Mix)"     PERFORMER "Legendary DJs"     INDEX 01 32:46:00   TRACK 32 AUDIO     TITLE "Roses (New Orleans Bounce Mix)"     PERFORMER "Legendary DJs"     INDEX 01 33:36:00   TRACK 33 AUDIO     TITLE "Reasons (New Orleans Bounce Remix)"     PERFORMER "Legendary DJs"     INDEX 01 35:10:00   TRACK 34 AUDIO     TITLE "Freak It"     PERFORMER "Lathun"     INDEX 01 37:25:00   TRACK 35 AUDIO     TITLE "My Boo (Hitman's Club Mix)"     PERFORMER "Ghost Town DJs"     INDEX 01 37:58:00   TRACK 36 AUDIO     TITLE "When Will I See You Smile Again?"     PERFORMER "Ricky Bell"     INDEX 01 38:20:00   TRACK 37 AUDIO     TITLE "Time After Time"     PERFORMER "Inoj"     INDEX 01 39:51:00   TRACK 38 AUDIO     TITLE "Love You Down"     PERFORMER "Inoj"     INDEX 01 40:37:00   TRACK 39 AUDIO     TITLE "Summertime Summertime"     PERFORMER "Corina"     INDEX 01 41:35:00

Spiritual Successor
Intergalactic Thumb Wrestling Federation: The New Generation

Spiritual Successor

Play Episode Listen Later Oct 20, 2021 57:57


If you saw us upload the wrong File a few hours ago, not you didn't! Sorry that this one got lost on the Radio waves but here we are!!! This week the boys talk about all Star Hands, Blake's new addictions, and how to be a spooooooky dad! Our new shop - https://streamlabs.com/spiritualsuccessorpodcast/merch Support us if you'd like! https://www.patreon.com/Spiritualsuccessorpodcast?fan_landing=true It takes 2 let's play https://www.youtube.com/watch?v=X_q7_Ni1XkY Cheap Shop by Anamanaguchi https://open.spotify.com/album/3DNHW2ckMRr3v0f7JF3Hc Find out more at https://spiritual-successor.pinecast.co

The Leighton Smith Podcast
Leighton Smith Podcast Episode 133 - October 20th 2021

The Leighton Smith Podcast

Play Episode Listen Later Oct 20, 2021 96:53


On this week's podcast:Oliver Hartwich, Executive Director of The NZ Institute, guests on Podcast 133 and we cover a raft of important matters.We discuss the state of the economy and the Covid effect. We talk interest rates, the governments direction and the damage it's doing around centralism, education and debt. We touch on supply chains, Germany and the Nobel Prize.We stop off at the Mailroom with your commentary and we finish with the controversy over Ivermectin.File your comments and complaints at Leighton@newstalkzb.co.nzHaven't listened to a podcast before? Check out our simple how-to guide.Listen here on iHeartRadioLeighton Smith's podcast also available on iTunes:To subscribe via iTunes click here

Israel News Talk Radio
Our Supreme Court's Unsustainable Powers - The Walter Bingham File

Israel News Talk Radio

Play Episode Listen Later Oct 19, 2021 40:09


Why: Only Israel has a legal right to this land. Arab claims based on documents issued by Jordan during their illegal 19 years of occupation of Judea, Samaria and eastern Jerusalem are fake and cannot be recognised. The: Supreme Court of Israel deserves much criticism in this matter. It's self-imposed powers of ‘legislating' must be curtailed in an extensive overhaul. It Was: Another successful Jerusalem Post annual conference with speeches revealing the thoughts and plans of the movers and shakers who influence our lives. What is: The National Drone Initiative? Don't miss this fascinating report of what to expect in the months to come.. Hear: What happened at the infamous Durban VI conference? Hear: How Israel practices Tikun Olam in Afghanistan, while the US Biden Administration is helpless. The Walter Bingham File 19OCT2021 - PODCAST

The Benny Show
Biden's COVID Vaccine Mandates Are CRUMBLING As Arline CEO REJECTS ORDER, Cops Threaten to STRIKE, and Members of Military File LAWSUIT

The Benny Show

Play Episode Listen Later Oct 18, 2021 42:54


Biden's COVID Vaccine Mandates Are CRUMBLING as an Airline, Cops, and Members of Military FIGHT BACK, Biden's Own Brain Is CRUMBLING as he SHOUTS at speech, International Security Is Crumbling as China Tests New Space Capability With Nuclear Capable Hypersonic Missile, Shocking U.S. Intel

The Innovative Mindset
How Slowing Down Can Help You Go Faster

The Innovative Mindset

Play Episode Listen Later Oct 18, 2021 19:03


In this week's show, I explore how slowing down can help you get more productive and creative. It's counterintuitive, I know. We tend to think that to achieve more, we have to do more. But oh my stars, that isn't always true. Do you have to do something? Sure. Do you have to do everything? Nope. Here's how you can get more attention so you can give more attention. First, try the one-minute breathwork assessment. Try it for a week. Note how you feel before you do this 53-second exercise and then note how you feel afterward. You can find the video on the Back To Basics Meditation page. You'll also find a link to an easy little assessment you can do for yourself. You'll see the proof with your own eyes. It's super easy. Click the link to the document. Make a copy of it for your own use (Go to File and select Make a Copy) Enter how you feel (the date and time will appear automatically right next to your feeling). Do the super short activity video. Enter how you feel (the date and time you do it will appear again) After a week or two, evaluate the difference. I'm betting you'll see one. Here's what the document looks like. Get in touch and let me know what differences you notice in how you feel before and after. I'd love to hear from you. Connect with me https://www.instagram.com/izoldat/ https://www.instagram.com/innovativemindsetpodcast/ https://twitter.com/IzoldaT https://www.linkedin.com/in/izoldat/ https://IzoldaT.com https://podcast.izoldat.com Episode Transcript [00:00:00] That's one of the best reasons to slow down. You begin to notice things again, instead of letting them streak by you. You actually have enough attention to pay attention. [00:00:16] Hello, and welcome to the innovative mindset podcast. Izolda Trakhtenberg on the show. I interview peak performing innovators in the creative social impact and earth conservation spaces or working to change the world. This episode is brought to you by brain FM, brain FM combines the best of music and neuroscience to help you relax, focus, meditate, and even sleep. [00:00:36] I love it and have been using it to write, create and do. Deepest work because you're a listener of the show. You can get a free trial head over to brain.fm/innovative mindset. To check it out. If you decide to subscribe, you can get 20% off with the coupon code, innovative mindset, all one word. And now let's get to the show.[00:01:00] [00:01:01] Hey there and welcome to the innovative mindset podcast. My name is Izolda Trakhtenberg, I'm super thrilled that you're here and I'm excited to talk to you about this week's topic. It's about a surprising thing that you can do to increase your overall productivity, creativity, and sense of wellbeing. And here's the surprising thing it's slowing down. [00:01:25] I believe that we're so busy with what we should be doing, that we don't really think about what we want to be doing. And I'm recording this episode the day after the big Facebook, WhatsApp, Instagram crash, or whatever it is that happened. And it was amazing to me how often mindlessly, I was going to Facebook and to Instagram to check in, even though I knew. [00:01:50] But there was nothing going on there that there was nobody that the sites were down, but it didn't seem to matter. There was a mindless sort of, oh, let me see what's going on. [00:02:00] And so when I slowed down a little bit and started thinking about it, it changed a lot. For me, it changed how I was looking at. [00:02:10] Downtime, slowing down time. And, and the question to ask is what if you took that time, how would it be? What might you do if you were slowing down? Would it be okay? Does it work. Are you feeling pressured and pushed into directions? You don't want to go and therefore don't really take the time. Right. So, so let me ask you, what did you do with the time that you couldn't be on those platforms yesterday? [00:02:38] I mean, I spent more time on Twitter, but I also spent more time looking at the cool art on the walls of the study room at the New York public library, which is where I spent the day where. And I see, I find a need, a change of venue to create as well as my trusted brain FM app. I have to admit that, but yeah, I take the time to [00:03:00] go take the subway and go to the library and I go outside of my home. [00:03:06] So I use the subway ride to chill out and I used to try to listen to podcasts or send emails or read emails, but I've stopped doing that because I can't hear much because of how loud it is. And it's hard to write. So nowadays, when I ride on the subway, I daydream, I imagine I come up with new ideas or even. [00:03:24] I meditate. And how hilarious is it to spend 20 minutes in deep meditation and forget where you are to open your eyes and see a guy speaking with deep love to his cup of coffee, surrounded by people in various stages of napping or yapping, but it lets me be here now. And that's a cool place to be. The other day, I noticed the core graffiti, some enterprising artist has painted in the dark tunnels in the space between stops. [00:03:49] There are miles of darkness and there are sometimes small lights that punctuate the darkness to sort of illuminate the space maybe for workers or something like that. And someone or [00:04:00] a number of someone's painted cool art right below the lights on one of the lines. You see a sort of movie unfold as you look at the lid spots. [00:04:07] Two people meet, try to be romantic decide they can't be, and instead become friends. And I'm not sure if it's there still, because since periodically someone from the subway comes along and paints over the art to base it black, but it's super cool when you notice it. And if I didn't take the time to slow down, I would have never noticed it. [00:04:26] And that's one of the best reasons to slow down. You begin to notice things again, instead of letting them streak by you, you actually have enough attention to pay attention. And I wouldn't see any of that if I didn't slow down and I love art where you find it, right, art, illuminates life for us, it highlights the bizarre, the fun, the tragic, the on inspiring the human condition. [00:04:52] And so when you take the time to slow down even a little bit, you get to take in. All of this other amazing and cool [00:05:00] stuff. And it also gives you time to imagine, to get new ideas, new thoughts, new insights. So I wanted to talk to you a little bit about different ways to slow down. My favorite of course is meditation, but you don't have to do that unless you want to. [00:05:15] And I'm going to talk to you a little bit more about that in a sec. You can doodle, you can daydream, you can take time off social, right. And taking time off social does something very interesting. It helps you stop consuming content. So your brain is more free to create it. And I don't mean create content for necessarily posting on social media or whatever, but creating new ideas, new creative ways of doing something. [00:05:41] Thinking about something of what you're going to cook for dinner. It doesn't matter what, what the creation is. It lets you be creative. Instead of watching other people be creative or listening to other people be creative. And it also helps you stop the comparison game, right? It gives your eyes and your ears arrest. [00:05:57] It helps you stop comparing your life to. [00:06:00] Because you're the only person living your life. You're the only person telling your story. So giving yourself permission to do that is an incredible thing. And one of the ways to do that is to take a little time to slow down and not consume content as much as so many of us do myself included. [00:06:16] Right. It also resets your mind, right? So going for a slow walk, it gives you time to sort of breathe and be and chill out and you can also do. One minute slow down to breathe, right? It's a way of filling the, well, it gives you the opportunity to do that. Very thing to just sort of go, okay, that's it. [00:06:36] I'm going to slow down and. I'm going to give you a mission, right? If you meditate, keep doing that. If you don't consider starting, and I'm going to talk to you about that right now. So how do you start? If you, if you don't meditate, how do you start doing it? How do you get into that space? Well, I've created a start where you are a meditation and that's great. [00:06:58] If you're already set, if you [00:07:00] already know where you are, that's terrific. But if you don't, if you're a little bit lost, then it becomes tougher to figure out exactly what to do and how to do it. And this is where I come in. So meditation, why, why do people meditate? We've sort of talked a little bit just about that earlier. [00:07:17] Right? Slowing down is beautiful, but it also, there are lots of reasons, right? If you're a monkey, you might do it because it's a way of getting closer to God or closer to whatever you hold sacred. If you're a lay person, you might want to do it because you want a greater sense of peace in your life. A greater sense of patience, a little bit more stability, that kind of thing. [00:07:33] And that's the whole point, since we're talking about how you can be more productive and creative. Yeah. Slow down. Meditation helps with that because it gives you space in your mind and your body and your heart and your soul to have that well, be filled with something that's positive and creative and maybe even productive, but at the very least positive and creative. [00:07:54] So there are lots of different reasons. There are people, like I said, who use meditation for [00:08:00] opening up their creative channels. Some people use it for developing better relationships, you know, with yourself as well as with other people in your life. For me, meditation has been about being creative without meditation. [00:08:11] I wouldn't have read it written seven books, but it's also about learning about yourself, you know? What the lessons are that you need to learn to know yourself better and to also be connected to something greater than yourself. If you, if you take that time, in my case, if you knowing myself better, that's about the earth and all the critters on the earth. [00:08:33] Right. But it could be whatever it is that makes you feel like you're connected. It's also way first and foremost, for me to get back into myself, finding that space within me, that helps me reset. And especially if I'm. I use a lot of breathing techniques to help with that, to help with being stressed, to help with releasing some of that Trent stress or anxiety. [00:08:56] I feel with my history, I have a lot of reasons [00:09:00] to be anxious. And I work through that often because as a, as a survivor of child abuse, as an immigrant, as someone who lived in a war zone, as someone who overcame a huge public speaking phobia, there are lots of reasons for me to be. And sometimes that anxiety rears its ugly head. [00:09:19] And I need to have tools in my toolbox to figure out how to deal with it and how to release the anxiety and as much as possible, the stress, right? That's the whole point of that. But again, it depends on who you are and what you want out of it, but a lot of it is going to end up, use it for what works for you. [00:09:39] If meditation is something that works for you, it's going to work for you. If it doesn't. Then my suggestion is. Keep trying until it does, but you're going to have to make your own way. Whatever meditation means to be. There are some tried and true techniques that work, there are some tried and true techniques that you start with. [00:09:55] And in the show notes, I'll, I'll give you a link to a meditation. That's [00:10:00] all about. The really simple breathing exercise and your mission to begin a very easy practice. It does not have to be a huge, I'm going to sit for half an hour, a day kind of thing. It just doesn't to begin with. You can do something very simple and very easy, and there are lots of different ways to meditate. [00:10:20] And we're going to talk about that in the weeks to come, but at its root, most of the time meditation is going to have some sort of breath work. When we do that, right? It's going to be with just simple breath work and, and meditation exercise. And as you develop your practice, you're going to have to see what works for you, because what I'm doing might not work. [00:10:44] There are apps you can use. There's calm and Headspace and balance. And my current favorite brain FM, there's listening to music. Vegging out as long as you've edge out without falling asleep, that's kind of meditative. And in fact, I dare say that there are gurus out there, [00:11:00] meditation teachers out there who would say that if you do anything mindfully that washing dishes can become a meditation, Allah tech, not Hahn, certainly something like Tai Chi is a moving meditation. [00:11:10] Things like that. There are lots and lots of different ways to meditate and that I'm developing and I'm going to be releasing meditation packs of different sorts of meditation in the coming weeks. But for today, we're just going to do a very back to basics kind of thing. Right. We're going to just breathe and that's your mission, right? [00:11:30] So here's, here's what I'm going to ask you to do in the show notes. There's a link to a little YouTube meditation that I developed. That's all about breathing. Very purposefully if you will, for even less than a minute. And here's the mission, the mission is that I'm going to ask you to go to the Google doc that I have. [00:11:55] There are two things to do here. I know more than one is, can be confusing, but the reason I'm [00:12:00] doing this, because there are two different things for you to do here, right? Developing an assessment or evaluating for yourself, how you feel before you meditate and how you feel after you meditate. And since breathwork is the root of meditation, we are going to do a very simple breathing meditation that takes less than a minute, but here's the thing. [00:12:24] If you go to the Google doc and you can see the image of what the Google doc looks like in the show notes, if you go to the Google doc, there's a little thing that says, how do I. And you're going to make a copy of that Google doc. So you can do this for yourself and you're going to write out how you feel. [00:12:42] Do you feel stressed? Do you feel anxious? Do you feel good? Do you feel hungry? How do you feel? And then. Once you do that a little date and timestamps is going to show up. And once that date and timestamp shows up, that's the before, right. And then do the breathing exercise in that little YouTube video. [00:12:59] So click [00:13:00] on that link and you're going to see that that actually gives you another sort of minute of that breath work that we were just talking about. And after you've done with that, go back to that Google doc and then. Type in how you feel now. So you're going to have a, before I do the breath work and after I do the breath work kind of thing happening, and the link to the YouTube video that does this little 53 seconds of meditation is right there in the Google docs. [00:13:31] So all you need to do is go to the Google doc, go to. Got to make a copy, make a copy. Cause you can't add anything into the, into that file so that lots of people can use it, but then you'll get a way of assessing for yourself. Does it make a difference? Right. I'm very practical when it comes to this stuff. [00:13:47] I love having the notion of does it make a difference and can I measure it? So that is what we're going to do. Right. [00:14:00] And w the way to look at meditation to begin with is that right? You, you have to give yourself permission to stop the rush every once in a while, take a minute and breathe. And so that's what this, this sort of test for yourself is going to be right. [00:14:17] You're going to write down how you feel beforehand, and then you're going to write down how you feel afterward, just so that you can have this notion of. Breathing and meditating and see if it makes any kind of difference for you. Try it for a week and note any differences for yourself. And I'm going to bet that you can just see some and you'll notice how much even a minute of sewing down will help you feel better and think better. [00:14:43] And if you decide that you want to go even further, then I'm going to invite you to go to yet a third thing to do. I can't believe I'm putting so many things in the show notes here. But there's a, there's a back-to-basics meditation that you can grab for yourself. And it's just just an MP3 file of me [00:15:00] talking you through this back to basics meditation. [00:15:03] What does it take to get to very, very beginning of breath work and you can feel free to grab it. It's yours for the keeping it's right there on that page. You can just grab it. And in fact, what I think I'm going to do now that I think about it is I'm going to put the link to that Google doc and the link to that YouTube meditation right there, so that you can have all three in one place. [00:15:26] And you'll notice that one of the things that happens when you do this before and after. Breathing assessment. You're going to notice changes in how you view everything. And once you notice those changes, you're also going to notice that you have more awareness to some of that, that stuff that let's use slow down, and some of the stuff that's going on around you, that you've been too busy and too stressed to notice. [00:15:48] That's really cool and really beautiful. So I'm going to invite you to do that and see. What it does for your productivity, because if you approach this stuff from that place of, I feel [00:16:00] peaceful and I don't feel stressed and rushed, you won't forget things as much. You'll have an easier time completing things. [00:16:06] You'll have an easier time of conceptualizing things, which means you're going to be able to see the whole picture, which is a beautiful thing when you're trying. Productivity to be part of your life. And you'll also see inspiration. And that's where that creativity thing, that creativity piece for me happens most when I slowed down enough to see it, to pay attention to it when it happens. [00:16:28] So if I, if I believe, and I do that, that innovation happens when. Someone who's creative sees a problem that they can solve and comes up with this really cool creative way of doing it. That's innovation. Well, if you want to innovate, if you want to create something, no one's ever created before first, you have to have the mental and sort of heart emotional space. [00:16:52] To be open to the inspiration, which is what a really easy, simple meditation practice will allow you to do. I hope that [00:17:00] you've enjoyed today's episode. I know that it's a lot of stuff to think about. Please head over to the back to basics meditation page it's is old, a t.com/back to basics. Made it back to basics meditation. [00:17:12] Oops. I said the wrong URL is older t.com/back to basics meditation. There, you will be able to find a Google doc that lets you do that. Evaluation the link to the YouTube video. That is the less than a minute of breathing. That's the thing to do when you're doing the before and after, and also the back-to-basics meditation, the exact, how the heck do you start a meditation that will help you? [00:17:38] Into that space of breath, breath, work, and breathing. I hope you've enjoyed the episode. I'd love for you to let me know what you think. If you're doing this for a week or even a few days, and you notice a difference, please let me know. Drop me a line is older@hisoldat.com. And if you're enjoying the episodes themselves, please rate and review the show, tell a friend [00:18:00] about the work that we're doing here and the cool stuff that we're exploring until next time I remind you to listen, learn, laugh, and. [00:18:07] A whole lot. [00:18:13] Thanks so much for joining me today. I really appreciate you being here. Please subscribe to the podcast if you're new and if you like what you're hearing, please review it and rate it and let other people know. And if you'd like to be a sponsor of the show, I'd love to meet you on patrion.com/innovative mindset. [00:18:31] I also have lots of exclusive goodies to share just with the show supporters. Today's episode was produced by Izolda Trakhtenberg and his copyright 2021 as always. Please remember, this is for educational and entertainment purposes. Only past performance does not guarantee future results, although we can always hope until next time, keep living in your innovative mindset.[00:19:00]  

The Chip Chipperson Podacast

Chipperson, Anthony and Xia delight in the return of Keanu Thompson. They discover that Keanu's older gentleman friend is trying to kill her with his fetishes. Even sleep cannot save her. A woman's g-string infects her backside and Chip reminds everyone of how his roids would accidentally tear off. See omnystudio.com/listener for privacy information.

First Aid Spray Podcast
044 - Profile: Leon S. Kennedy

First Aid Spray Podcast

Play Episode Listen Later Oct 17, 2021 138:28


This is First Aid Spray - a Resident Evil podcast by fans, for fans! Joined by special guest JJ of Residence of Evil, we reopen the historical document that is the Profile series to discuss the many appearances of Leon S. Kennedy. Can we all reach consensus on the best and worst Leon entries? Which ones stand out, for the wrong reasons? How do the RE2 original and RE2 remake portrayals compare? And which member of the team has dark hopes for Leon's resolution? In the news are the reveal trailers for Resident Evil: Welcome to Raccoon City as well as the countdown to Resident Evil: The Board Game. Resident Evil: The Board Game on Kickstarter https://www.kickstarter.com/projects/steamforged/resident-evil-board-game Find more at http://FASprayPod.com Join our Discord server: http://discordapp.com/invite/hKmmFGG Support the show: http://patreon.com/FASprayPod Twitter: http://twitter.com/FASprayPod Instagram: http://www.instagram.com/FASprayPod Facebook: http://facebook.com/FASprayPod YouTube: http://youtube.com/FirstAidSprayPodcast Twitch: http://twitch.tv/FASprayPod Panel: Psy (http://twitter.com/psyniac_123), Steve (http://twitter.com/FBStevewastaken) and JJ (http://twitter.com/jjfromroe). Contributors: DistantMemories1996 (http://twitter.com/DistantMemory96) and KendoGunShop (http://youtube.com/KendoGunShop). (13:24) News (24:28) File reading (28:53) Profile: Leon S. Kennedy (1:16:19) File reading (1:20:56) Profile: Leon S. Kennedy - Continued Logo by www.twitch.tv/brinnstar First Aid Spray banner design by http://deviantart.com/EmzelWolf “First Aid Spray” theme by Mono Memory (http://twitter.com/MonoMemory85). All other music is ™ and © Capcom and their original composers.

Not In a Creepy Way
NIACW 431 Knight Rider (TV)

Not In a Creepy Way

Play Episode Listen Later Oct 17, 2021 126:39


Brothers Drew and J discuss the 1980's TV classic Knight Rider. This is an epic one, folks!   Along the way they discuss Battlestar Galactica, Sons of Anarchy, floppy discs, St Elsewhere (they spoil the big ending), cover songs, freaky postal vehicles, toys, and a shared love for William Daniels and T-Tops.   Here are the episodes referenced:   Season 1 Episodes 1 + 2 Knight of the Phoenix Episode 9 Trust Doesn't Rust Episode 19 White Bird   Season 2 Episodes 1 + 2 Goliath Episode 6 Return to Cadiz Episode 7 K.I.T.T. the Cat Episode 9 Soul Survivor Episode 11 Knightmares Episode 14 Diamonds Aren't a Girl's Best Friend Episodes 18 + 19 Goliath Returns Episode 23 Let It Be Me   Season 3 Episodes 1 + 2 Knight of the Drones Episode 6 K.I.T.T. vs K.A.R.R. Episode 8 Knight in Disgrace Episode 10 Lost Knight Episode 14 Junk Yard Dog   Season 4 Episode 2 Knight of the Juggernaut Episode 4 Sky Knight Episode 12 Scent of Roses   File length 2:06:38 File Size 84.6 MB   Theme by Jul Big Green via SongFinch Subscribe to us on Apple Podcasts Listen to us on Stitcher Like us on Facebook Follow us on Twitter Send your comments to show@notinacreepyway.com Visit the show website at www.notinacreepyway.com

The Rush Hour Melbourne Catch Up - 105.1 Triple M Melbourne - James Brayshaw and Billy Brownless
Chris Goulding, Idiot File, JB loses his lounge - The Rush Hour Sunday Session - Sunday 17th October 2021

The Rush Hour Melbourne Catch Up - 105.1 Triple M Melbourne - James Brayshaw and Billy Brownless

Play Episode Listen Later Oct 17, 2021 32:22


JB has lost his room!, Friday Brag Artist, Boomers Bronze Medallist Chris Goulding, Idiot File, the rivalry developing between the Dees and Dogs, Hump Day Quiz, Billy's Joke See omnystudio.com/listener for privacy information.

Cinema File Podcast
Cinema File: "Halloween Kills" is the year's feel-bad slasher, as it should be

Cinema File Podcast

Play Episode Listen Later Oct 15, 2021 57:47


In this spoiler-filled discussion of  the 2021 movie "Halloween Kills," Athens Banner-Herald arts and entertainment reporter Andrew Shearer talks to "Babysitter Massacre" director and slasher movie authority Henrique Couto about the unique way screen violence and character are used to responsible effect in the latest outing for Michael Myers.

Oversharing with Mikhail Alfon
Behind the Files & Exploring Creativity with ///MACA

Oversharing with Mikhail Alfon

Play Episode Listen Later Oct 15, 2021 73:02


Maca is a deep thinker, a Creative Adult, and founder of File - a branding studio in Los Angeles responsible for some of the most recognizable CPG brands in the market today. Connect with Maca https://www.instagram.com/madeincomputer https://filebrand.com/ Connect with Mikhail https://www.mikhailalfon.com https://www.instagram.com/miqk https://www.twitter.com/miqk 

The Business Lounge Podcast
How To Prepare To File Chapter 7 Bankruptcy In Wisconsin

The Business Lounge Podcast

Play Episode Listen Later Oct 14, 2021 5:08


The word ‘bankruptcy' often has a negative connotation, and can scare those who are faced with the possibility of filing for bankruptcy. However, in Wisconsin, the process of filing for Chapter 7 bankruptcy can be simple. Read the full article here: https://www.oflaherty-law.com/learn-about-law/how-to-prepare-to-file-for-chapter-7-bankruptcy-in-wisconsin O'Flaherty Law now serves over 105 counties across Illinois, Iowa, and Indiana. If you have any questions regarding a case or would like to speak to one of our attorneys after watching a #LearnAboutLaw video, give us a call at (630) 324-6666 or send us an email at info@oflaherty-law.com to get in contact with someone from our team. Subscribe to our channel for daily videos dedicated to all things law and leave a comment with any questions about this topic. Find us online for more legal content and to stay connected with our team - Website: https://www.oflaherty-law.com/ - LinkedIn: https://www.linkedin.com/company/oflahertylaw - Instagram: https://www.instagram.com/oflahertylaw - Facebook: https://www.facebook.com/oflahertylawGroup/ **None of the content in this series is intended as paid legal advice. In this video we discuss that process. What is #Chapter7 #Bankruptcy?, Do I Qualify to Apply for Chapter 7 Bankruptcy in Wisconsin?, Wisconsin Bankruptcy Exemptions, Do I Need an Attorney to File for Bankruptcy in Wisconsin?, What Documents Do I Need to File?, Are There Other Requirements to File Chapter 7 Bankruptcy in Wisconsin?, How Much Does It Cost to File Chapter 7 Bankruptcy in Wisconsin?, and What Happens Post-File?

Camp Here & There
FILE 18. The Hive of Anxiety

Camp Here & There

Play Episode Listen Later Oct 14, 2021 33:46


Content warning: descriptions of bugs dying Audio data from various sources, detailing the events which occurred at SITE2 on day 967. MAJOR INSIGHT INTO: • Abilities & behaviors of ANOMALY36 • Relationship between ENTITY1 & ENTITY3 • Recall ability & memory details of ENTITY2 MINOR INSIGHT INTO: • Fear responses of various personnel • Abilities & behaviors of ENTITY9 IMPORTANT NOTES: • You'll have to forgive me for struggling a bit with the final clip. It involved audio data which I went to rather extravagant lengths to record, only to find that AGENT23 had recorded one of her “programs” onto the same tape. Disclaimer: Camp Here & There is intended for audiences aged 16+. The story deals with mature themes and graphic horror which may not be suitable for all audiences. Viewer discretion is advised. Performances by Blue Mayfield, Corey Wilder, Susan Dohan, and Nicholas Belov. Original music created by Will Wood. WEBSITE (transcripts available) https://mayfieldandbelov.com/ PATREON https://www.patreon.com/mayfieldandbelov DISCORD https://discord.gg/tT3Ah7x6tW INSTAGRAM @ mayfieldandbelov TWITTER @ mayfieldnbelov

Colorado Matters
Oct. 13, 2021: What ‘The Mike File’ reveals about mental health treatment over time

Colorado Matters

Play Episode Listen Later Oct 13, 2021 48:59


Stephen Trimble's book, "The Mike File," explores the realities of mental illness and inadequate care through the real-life story of two brothers. Then, a new exhibit highlights the history of Indigenous slavery in Southern Colorado. And using virtual fences to herd cattle and save grassland.

The Leighton Smith Podcast
Leighton Smith Podcast Episode 132 - October 13th 2021

The Leighton Smith Podcast

Play Episode Listen Later Oct 12, 2021 90:58


On this week's podcast:In early 2020, nearly every government in the world, in a multitude of ways, increased its direct control of people's lives. "The Great Covid Panic” examines how the madness started, what kept it going and how it might end. Guesting is co-author Professor Gigi Foster from the School of Economics at the University of New South Wales. It's a lengthy expose.Finally, to the Mailroom, and a further submission from a former National MP who addresses political leadership in a brilliant manner.File your comments and complaints at Leighton@newstalkzb.co.nzHaven't listened to a podcast before? Check out our simple how-to guide.Listen here on iHeartRadioLeighton Smith's podcast also available on iTunes:To subscribe via iTunes click here

The WAN Show Podcast
I Have MORE to Say About Steam Deck - WAN Show October 8, 2021

The WAN Show Podcast

Play Episode Listen Later Oct 11, 2021 134:42


Honey automatically applies the best coupon codes to save you money at different online checkouts, try it now at https://www.joinhoney.com/linus Buy a Seasonic Ultra Titanium PSU On Amazon: https://geni.us/q4lnefC On NewEgg: https://lmg.gg/8KV3S Visit https://www.squarespace.com/WAN and use offer code WAN for 10% off Check out our other Podcasts: Carpool Critics Movie Podcast: https://www.youtube.com/channel/UCt-oJR5teQIjOAxCmIQvcgA Timestamps (Courtesy of NoKi1119) [0:00] Chapters. [2:02] Intro. [2:46] Topic #1: Valve's Steam Deck teardown. 4:18 Linus called out in the reaction video. 9:12 Thoughts on what Valve can do better. 11:31 Right to repair, battery challenges. 19:23 Valve does not recommend SSD swapping. [20:47] Topic #2: Linux challenge update. 22:27 Linux dictionary is overwhelming. 27:37 Rules of the challenge. 31:50 Gaming, driver & hardware issues. 37:53 Steam's Big Picture experience. 40:02 Linus predicts hate comments for his video. 44:04 The good & the bad, compared to other OSs. 52:56 File extension & oddity with Github & Linux guides. 1:00:12 Gen Z does not know where to find files. [1:04:43] Sponsors. 1:05:04 Honey Promo Codes. [1:05:37] Linus rants about haters, devs & right to repair. [--] Sponsors Cont. 1:12:16 Seasonic's Ultra Titanium PSUs. 1:12:54 Squarespace website builder. [1:13:51] Topic #3: Microsoft agrees to study for right to repair. 1:19:21 Corporates versus right to repair. [1:21:06] LTTStore new merch. [1:22:55] Topic #4: Twitch data leaked. 1:27:46 Twitch's "Vapor" game streaming service. [1:38:56] Topic #5: Facebook, Insta, WhatsApp down for 6 hours. [1:39:49] Topic #6: Nintendo's Switch OLED Model. [1:44:11] Topic #7: Feud with TeamViewer. 1:50:50 TeamViewer Support's response. [1:56:07] Superchats. [2:05:38] Nick calling about LTT-sponsored UFD Tech stream. [2:13:43] Outro.

The Rush Hour Melbourne Catch Up - 105.1 Triple M Melbourne - James Brayshaw and Billy Brownless
Billy in a 1995 jumper, Bernie Vince, Idiot File - The Rush Hour Isolation podcast - Monday 11th October 2021

The Rush Hour Melbourne Catch Up - 105.1 Triple M Melbourne - James Brayshaw and Billy Brownless

Play Episode Listen Later Oct 11, 2021 22:48


We relive Billy walking in on September 1 in a Geelong footy jumper from 1995, Trending Topics, Bernie Vince, Idiot File, Billy's Joke See omnystudio.com/listener for privacy information.

Crime and Compulsion Podcast
Episode 35: Dr. Linda Hazzard & The Starvation Heights Murders - Part 2

Crime and Compulsion Podcast

Play Episode Listen Later Oct 10, 2021 49:12


Missing persons website for Daniel Robinson: https://pleasehelpfinddaniel.com/In 1911 English sisters Claire and Dora Williamson began consulting a Seattle fasting specialist named "Dr." Linda Burfield Hazzard. The sisters found themselves caught in a web of manipulation and lies. Join us as as we discuss the Starvation Heights sanitarium, and the woman who many consider Washington's first female serial killer. Sources:Sources: https://badgut.org/information-centre/a-z-digestive-topics/enemas/ https://www.historylink.org/File/7955 https://forgottenminnesota.com/forgotten-minnesota/2018/07/starvation-doctor-quack-healer-serial-killer Starvation Heights by Gregg Olsen

The History Network
3103 Interwar Naval Treaties and Battleship Development

The History Network

Play Episode Listen Later Oct 10, 2021 13:46


At the end of the First World War France and Italy had wanted the German High Seas Fleet divided between them, Britain and the USA wanted it scuttled, which Germany did anyway without permission. The resulting Treaty of Versailles imposed strict limits on size and number of warships the newly constituted German government was allowed to build and maintain. This nullified the threat of Germany at sea. Dur: 14mins File: .mp3

Not In a Creepy Way
NIACW 430 Trick R Treat

Not In a Creepy Way

Play Episode Listen Later Oct 10, 2021 80:27


Brothers Drew and Eric go back to the horror genre with 2007's Trick R Treat. It's fun, it would be a great date movie, and it's 82 minutes long.   One of Drew's cats makes her presence known.   Housekeeping starts at 44:40 during which they discuss Halloween costumes, musical improv, cellos, Faith No More, Sex Pistols, and The Legend of Zelda: Breath of the Wild.   File length 1:20:26 File Size 55.3 MB Theme by Jul Big Green via SongFinch Subscribe to us on Apple Podcasts Listen to us on Stitcher Like us on Facebook Follow us on Twitter Send your comments to show@notinacreepyway.com Visit the show website at www.notinacreepyway.com  

Newshour
EU's energy reliance on Russia

Newshour

Play Episode Listen Later Oct 8, 2021 48:21


Winter in the northern hemisphere is approaching with gas prices soaring - does Russia have the will and the means to ease European concerns? We hear from the annual gas forum in St Petersburg and the spokesperson of the EU Energy Commissioner. Also on the programme: we hear from Kunduz in northern Afghanistan where dozens of people have been killed in a suicide bomb attack on a mosque; and one of this year's Nobel Peace Prize winners, Maria Ressa, speaks to Newshour. (File photo: The logo of Gazprom - the Russian gas giant. Credit: Reuters /Evgenia Novozhenina)

MoneyWise on Oneplace.com
When to File an Insurance Claim

MoneyWise on Oneplace.com

Play Episode Listen Later Oct 8, 2021 24:57


To support this ministry financially, visit: https://www.oneplace.com/donate/1085/29 Insurance is a great way to protect yourself from unexpected losses. But knowing when to file a claim and when not to, well, that can protect you from unintended consequences. It's prudent to have life, health, auto and home insurance and it's also wise to keep the cost of your premiums low. I'll tell you the secret for doing that today. Insurance isn't specifically mentioned in the Bible. But God's Word does tell us that we should be prudent and wise. Proverbs 8:12 says,I, wisdom, dwell with prudence, and I find knowledge and discretion. And Ecclesiastes 7:12 tells us, For the protection of wisdom is like the protection of money, and the advantage of knowledge is that wisdom preserves the life of him who has it.Having insurance is wise, but knowing when to file a claim and when not to requires wisdom as well. Sometimes the payout just isn't worth the cost down the road to you, personally, and to consumers as a whole. So whenshouldyou file a claim? There's a good rule of thumb for home and auto insurance: only file a claim if the damage comes to $500 or more on top of your deductible. So if you have a $1,000 deductible, file a claim only if the repair bill comes to more than $1,500. Try to think of home and auto more like catastrophic health insurance. Use it only for the big things, not to nickel and dime the insurance company whenever you dent a fender or lose a shingle in a wind storm. You're better off paying for those things out of pocket. Filing multiple claims with an insurance company is a sure way to get your premiums raised, or worse. You could find that when your policy is up, the company declines your renewal. And if you think that you'll just go to another insurance company you're probably in for an unpleasant surprise. They talk to each other. You've probably never heard of it, but the insurance industry has a secret weapon that it uses to weed out frequent filers. It's a shared database called the Comprehensive Loss Underwriting Exchange or CLUE. Ifeverthere was an appropriate acronym! You don't want to file a claim unless you're facing significant out of pocket losses. But there's a way you can avoid even the temptation of filing. The next time your policy is up for renewal, raise your deductible to the highest amount the insurance company allows. Next, you want to make sure you have an emergency fund, plus another $500 or $1,000. With that accomplished, you're now insuring yourself against minor losses. Finally, keep that amountyour deductible plus at least $500in your emergency savings. Do all that and you'll save yourself a lot of money and grief down the road. This will not only avoid the temptation to file, but the high deductible will also help lower your premiums which will save you a lot of money over time. On today's program we also answer your questions: How can we know which needy causes are legitimate? I want to give a significant amount of money to my church. What's the best way to do that? Do you recommend Bitcoin? Remember, you can call in to ask your questions most days at (800) 525-7000 or email them toQuestions@MoneyWise.org. Also, visit our website atMoneyWise.orgwhere you can connect with a MoneyWise Coach, andeven download free, helpful resources like the free MoneyWise app. Like and Follow us on Facebook atMoneyWise Mediafor videos and the very latest discussion!Remember that it's your prayerful and financial support that keeps MoneyWise on the air. Help us continue this outreach by clicking the Donate tab on our website or in our app.

Top of Mind with Julie Rose
Supreme Court, TikTok Speak, Medical Choice

Top of Mind with Julie Rose

Play Episode Listen Later Oct 7, 2021 104:04


The US Supreme Court is tackling some of the most divisive issues in American politics right now. Then, TikTok is speeding up trendy slang words. And, many Americans stand firm in the belief that they have the right to choose their medical treatment—but the Constitution doesn't guarantee that right. Also, on today's show: pretty, white, young women who go missing tend to attract more attention from the media; how something mundane ends up unused in the closet for months and months while you wait for just the right moment to use it. (Erin Schaff/The New York Times via AP, Pool, File)

Camp Here & There
FILE 17. The Hallucination of the Hive

Camp Here & There

Play Episode Listen Later Oct 7, 2021 23:59


Audio data from various sources, detailing the events which occurred at SITE2 on day 966. MAJOR INSIGHT INTO: • ENTITY4 intentions & machinations • ENTITY1 thought process & perspective • ENTITY2 thought process & perspective MINOR INSIGHT INTO: • ENTITY3 administration style • ENTITY11 & ENTITY13 motivations & behaviors • Bees IMPORTANT NOTES: • Oh, finally. Performances by Blue Mayfield and Nicholas Belov. Original music created by Will Wood. WEBSITE (transcripts available) https://mayfieldandbelov.com/ PATREON https://www.patreon.com/mayfieldandbelov DISCORD https://discord.gg/tT3Ah7x6tW INSTAGRAM @ mayfieldandbelov TWITTER @ mayfieldnbelov

Mettle of Honor: Veteran Stories of Personal Strength, Courage, and Perseverance
(S1:E57) Jeff Moffett's Spoken Word Entitled "Born to Inspire"

Mettle of Honor: Veteran Stories of Personal Strength, Courage, and Perseverance

Play Episode Listen Later Oct 6, 2021 15:53


Jeff Moffett, originally from Detroit, Michigan, retired from the U.S. Army in Augusta, Georgia where he was an instructor at the Fort Gordon Non-Commissioned Officer Academy. His wife also served in the U.S. Army and retired as a Warrant Officer. In his LinkedIn profile, you will see in the "about” section, Jeff is a Telecommunications / Network Professional with over thirty years of experience. He has excellent management and communication skills, and applies regulations, policies, and procedures through out his work. Jeff has the ability to grasp new ideas and technology quickly and confidently. Jeff is pastor of a church named “The Historic Hosannah Missionary Baptist Church” in Augusta, GA I love hearing stories of how couples met. His story is unique in and of itself. CONNECT WITH JEFF MOFFETT LinkedIn: https://www.linkedin.com/in/jeff-moffett-piipinc/  Contact information of the church where Jeff Moffett is pastor. Historic Hosannah Missionary Baptist Church | 1729 Ellis St. | Augusta, Georgia 30904 | PH: 706.733.4387 | FAX: 706.737.6286 At the end of this episode, you will hear from Navy Veteran, D.A. Michaels, author of Courageously Broken.  Courageously Broken Book Details ASIN: B08J7TX3KV | Language: English | Publication date: September 15, 2020 | Print length: 277 pages | File size: 4979 KB | Simultaneous device usage: Unlimited | Text-to-Speech: Enabled |  Screen Reader: Supported | Enhanced typesetting: Enabled | Word Wise: Enabled --- This episode is sponsored by · Anchor: The easiest way to make a podcast. https://anchor.fm/app --- Send in a voice message: https://anchor.fm/mettle-of-honor/message Support this podcast: https://anchor.fm/mettle-of-honor/support

The Leighton Smith Podcast
Leighton Smith Podcast Episode 131 - October 6th 2021

The Leighton Smith Podcast

Play Episode Listen Later Oct 6, 2021 85:33


On this week's podcast:Leadership is on our mind. Alternatively, lack of leadership.It's been suggested we need a present day Moses but the 40 years it took him to clear the desert is fractionally too long for us. Maybe the leadership needs to originate in us. Herd leadership maybe?Barry Brownstein, PhD, Professor emeritus of both Economics and Leadership addresses what's missing and how it can be resolved.We ask whether the great New Zealand dream is dead. And we introduce you to speech “clamp”.And, finally, the Mailroom with Mrs Producer.File your comments and complaints at Leighton@newstalkzb.co.nzHaven't listened to a podcast before? Check out our simple how-to guide.Listen here on iHeartRadioLeighton Smith's podcast also available on iTunes:To subscribe via iTunes click here

WBBM Newsradio's 4:30PM News To Go
Foxx defends her office after it doesn't file charges in shootout

WBBM Newsradio's 4:30PM News To Go

Play Episode Listen Later Oct 5, 2021 8:20


In other top stories: outdoor dining in question over coming colder months; attorney trying to clear deceased inmate's name; Park Ridge Halloween display with COVID them vandalized; and more. See omnystudio.com/listener for privacy information.

File on 4
Pandora Papers: From Bribery to the British High Street

File on 4

Play Episode Listen Later Oct 5, 2021 36:54


Amongst the millions of documents released in the ‘Pandora Papers' leak of offshore financial information are a number of documents that one family business would rather have remained hidden. Together with The Guardian newspaper, File on 4 follows the trail of millions of pounds tainted by bribery and corruption. Piecing together key documents from the leak reveals how earnings from Unaoil – a company involved in the ‘world's biggest bribery scandal' - were invested into UK property on high streets as far apart as London and Aberdeen, Reading and the North East. Why does the UK remain a go-to destination for some of the world's most tainted money? And why does it take a leak for the truth to be revealed about who's really invested in some of the country's prime property? The Pandora Papers is an investigation led by the International Consortium of Investigative Journalists. The documents have been shared with the Guardian, the BBC and other media partners around the world. Further reporting on other stories arising from the Pandora Papers leak are available online: https://www.bbc.co.uk/news/world-58780561 Reporter: Felicity Hannah Producer: Anna Meisel Additional Production: Kate West Editor: Gail Champion

Israel News Talk Radio
Bennett Lies, and his partner Yair Lapid Is The Left's Trojan Horse - The Walter Bingham File

Israel News Talk Radio

Play Episode Listen Later Oct 5, 2021 43:11


Bennett's: Emphatic statement that to be Prime Minister with just 10 Knesset seats is undemocratic. But he has only six! Also: There will be no government with the left or with Arabs, said Bennett. Today they are his coalition partners, and he does their bidding! Lapid: Lives in Cloud-Cuckoo-Land; He is prepared to offer Israel's silver for phoney Arab promises, because he does not understand the Palestinian Arab mentality and intentions. Hear: How our Foreign Minister intends to lay the Corner-stone for a Palestinian State within Israel, when he God forbid succeeds as Prime Minister. The: Tactical errors of sixteen years ago still impact on our daily life today. How: Our new, otherwise great State President slipped-up badly. Also: Examples of US President Biden's inability to be the leader of the free world. And: More The Walter Bingham File 05OCT2021 - PODCAST

The Tonka Toy Podcast
Just got Back!!!! First Up Radio Mix

The Tonka Toy Podcast

Play Episode Listen Later Oct 5, 2021 46:16


PERFORMER "Tonka" TITLE "22:24" FILE "10-04-xx.mp3" MP3   TRACK 01 AUDIO     TITLE "Nothing Like It (Album Version (Edited))"     PERFORMER "Beanie Sigel"     INDEX 01 00:00:00   TRACK 02 AUDIO     TITLE "Run Ni**a"     PERFORMER "Trick Daddy feat. Tre+6"     INDEX 01 01:50:00   TRACK 03 AUDIO     TITLE "M***a 4 Life (Album Version (Edited)) [feat. Memphis Bleek] (feat  Memphis Bleek)"     PERFORMER "Ja Rule"     INDEX 01 03:01:00   TRACK 04 AUDIO     TITLE "Coming Of Age (Da Sequel) [feat. Memphis Bleek] (feat  Memphis Bleek)"     PERFORMER "Jay-Z"     INDEX 01 04:23:00   TRACK 05 AUDIO     TITLE "Some X (feat  DMX)"     PERFORMER "Ruff Ryders feat. DMX"     INDEX 01 05:30:00   TRACK 06 AUDIO     TITLE "Un-Hunh! (Edit) [feat. DMX] (feat  DMX)"     PERFORMER "Jadakiss feat. DMX"     INDEX 01 07:38:00   TRACK 07 AUDIO     TITLE "Holiday (Album Version (Edited))"     PERFORMER "Ruff Ryders"     INDEX 01 09:03:00   TRACK 08 AUDIO     TITLE "One (clean version)"     PERFORMER "Ghostface Killah"     INDEX 01 10:19:00   TRACK 09 AUDIO     TITLE "Ten Crack Commandments (2007 Remaster)"     PERFORMER "The Notorious B.I.G."     INDEX 01 11:47:00   TRACK 10 AUDIO     TITLE "Deadly Combination (Radio)"     PERFORMER "Big L feat. 2pac, The Notorious B.I.G."     INDEX 01 14:01:00   TRACK 11 AUDIO     TITLE "A Week Ago (feat  Too Short)"     PERFORMER "Jay-Z feat. Too Short"     INDEX 01 16:33:00   TRACK 12 AUDIO     TITLE "U Not Like Me (Album Version (Edited))"     PERFORMER "50 Cent"     INDEX 01 17:51:00   TRACK 13 AUDIO     TITLE "Recognize"     PERFORMER "L.O.X."     INDEX 01 20:10:00   TRACK 14 AUDIO     TITLE "Favor for a Favor"     PERFORMER "Nas"     INDEX 01 22:14:00   TRACK 15 AUDIO     TITLE "Beanie  (Mack B****) (Album Version (Edited))"     PERFORMER "Beanie Sigel"     INDEX 01 23:18:00   TRACK 16 AUDIO     TITLE "The Learning (Burn)"     PERFORMER "Mobb Deep"     INDEX 01 24:29:00   TRACK 17 AUDIO     TITLE "24 Hrs. to Live (2016 Remaster)"     PERFORMER "Mase feat. The Lox, Black Rob & DMX"     INDEX 01 26:34:00   TRACK 18 AUDIO     TITLE "LA-LA-LA"     PERFORMER "Jay-Z"     INDEX 01 28:21:00   TRACK 19 AUDIO     TITLE "Jimmy Choo (Album Version (Edited)) [feat. Ashanti] (feat  Ashanti)"     PERFORMER "Shyne"     INDEX 01 29:40:00   TRACK 20 AUDIO     TITLE "Reservoir Dogs (feat  L O X  & Sauce Money & Beanie Sigel)"     PERFORMER "Jay-Z feat. L.O.X. & Sauce Money & Beanie Sigel"     INDEX 01 30:28:00   TRACK 21 AUDIO     TITLE "Look Thru My Eyes"     PERFORMER "DMX"     INDEX 01 33:25:00   TRACK 22 AUDIO     TITLE "Show Discipline (Edit) [feat. Nas] (feat  Nas)"     PERFORMER "Jadakiss feat. Nas"     INDEX 01 34:27:00   TRACK 23 AUDIO     TITLE "Damien"     PERFORMER "DMX"     INDEX 01 36:22:00   TRACK 24 AUDIO     TITLE "Quiet Storm (Clean Version)"     PERFORMER "Mobb Deep"     INDEX 01 38:14:00   TRACK 25 AUDIO     TITLE "Cherchez LaGhost"     PERFORMER "Ghostface Killah"     INDEX 01 39:55:00   TRACK 26 AUDIO     TITLE "Tales Of A Hustler Pt. 2 (feat  Oschino & Sparks)"     PERFORMER "Beanie Sigel feat. Oschino & Sparks"     INDEX 01 42:03:00

Tax Rep Network with Eric Green
110. The IRS Wants the Quickbooks File: A Conversation with Walter Pagano, CPA, CFE

Tax Rep Network with Eric Green

Play Episode Listen Later Oct 5, 2021 57:04


Joining Attorney Eric Green this week is Walter Pagano. Walter is a partner and tax controversy leader at Eisner Advisory Group in New York where he specializes in forensic accounting and controversy issues. Walter and Eric discuss why the IRS wants the Quickbooks file, the rules around their ability to obtain it, and what practitioners should be doing before and during the exam. Want to build your IRS Representation practice and add $100,000 to your bottom line this year? Join us inside https://taxrepllc.com How to get the software we use? Go to https://TaxHelpSoftware.com and use this link for a 6-month trial for only $250: Want to call and get through to the IRS in under 3 minutes? Sign up for a trial of ENQ here: https://callenq.com/trn/ Join us in Vegas! Click Here Register for the TRN Vegas Conference!

SoWhatchaSayin.
Ep:155 Lost File

SoWhatchaSayin.

Play Episode Listen Later Oct 3, 2021 84:15


The name of the episode speaks for itself. We hope you still enjoy the episode. If you wanna reach us please email us at whatchasayinbiz@gmail.com YouTube: SoWhatchaSayin Podcast IG: @sowhatchasayin @toneeshark @circa93_ @coreyj985 @pink_blaire Twitter: @SoWhatchaSayinP @shaundeaux @prince_COREY @pink_blaire @ToneeShark

Not In a Creepy Way
NIACW 429 The Courier 2020

Not In a Creepy Way

Play Episode Listen Later Oct 3, 2021 108:12


Brothers J and Eric discuss the 2020 Benedict Cumberbatch cold war spy drama The Courier. It's low-key good stuff.   Along the way they discuss the word "penguin," “War Pigs” by Faith No More and by Samantha Fish, local government, “The Black Hole War: My Battle with Stephen Hawking to Make the World Safe for Quantum Mechanics” by Leonard Susskind, “The Last Tribe” by Brad Manuel, house centipedes, and Chuck Palahniuk. Housekeeping begins at 1:07:22 File length 1:48:11 File Size 79.3 MB Theme by Jul Big Green via SongFinch Subscribe to us on Apple Podcasts Listen to us on Stitcher Like us on Facebook Follow us on Twitter Send your comments to show@notinacreepyway.com Visit the show website at www.notinacreepyway.com

The Rush Hour Melbourne Catch Up - 105.1 Triple M Melbourne - James Brayshaw and Billy Brownless
Idiot File, Jake Lever, Brad Johnson - The Rush Hour Sunday Session - Sunday 3rd October 2021

The Rush Hour Melbourne Catch Up - 105.1 Triple M Melbourne - James Brayshaw and Billy Brownless

Play Episode Listen Later Oct 3, 2021 28:30


Western Bulldogs legend Brad Johnson, when did you forget someone's name?, Melbourne's Jake Lever, Idiot File, Trending Stories, Hump Day Quiz, Billy's Joke See omnystudio.com/listener for privacy information.

The Clark Howard Podcast
10.01.21 Clark Answers His Critics on Clark Stinks / Women Entrepreneurs Skyrocket.

The Clark Howard Podcast

Play Episode Listen Later Oct 1, 2021 31:34


Christa shares Clark Stinks posts with Clark. Submit yours at Clark.com/ClarkStinks. / Pandemic burnout has prompted many to re-evaluate their life and careers. Close to half of new business owners now are women. The economics of this development and the opportunities it presents. Clark Stinks and Ask Clark topics include: Hearing Aids / What Is a 403(b) and How Does It Work? / File complaints with your State Consumer Affairs Department (if your state has an active one) / How to Spot and Avoid Scams on Facebook and Instagram / IRS - Coronavirus-related relief for retirement plans and IRAs questions and answers Want more money advice? Sign up for Clark's free daily newsletter! Free Advice: Clark's Consumer Action Center Learn more about your ad choices. Visit megaphone.fm/adchoices

The Money Show
Icasa sets timetable to auction spectrum next March. South African Agri-FinTech Start-Up Secures a major Investment. Friday File: Aspire Art Auctions

The Money Show

Play Episode Listen Later Oct 1, 2021 41:00


Duncan McLeod, Founder and Editor of Techcentral| analyses the effects of Icasa extending its timetable to auction spectrum next year. Grant Jacobs, CEO of Hello Choice tells Ray White how his business managed to secure major investment from Standard Bank. See omnystudio.com/listener for privacy information.

Cinema File Podcast
Cinema File: 'Titane' is going to cause walk-outs, which is awesome

Cinema File Podcast

Play Episode Listen Later Oct 1, 2021 18:22


A review of Julia Decournau's 'Titane' recorded on my drive home from the theater. There are some spoilers, so proceed with caution if you haven't seen it yet. Starts Oct. 1, 2021 at Athens Cine, which requires proof of vaccination or negative COVID test for entry.

Storage Unpacked Podcast
#212 – File Not Found

Storage Unpacked Podcast

Play Episode Listen Later Oct 1, 2021 32:54


In this week's podcast, Chris and Martin get together to discuss the curious case of missing files. In this instance, the files weren't actually missing, but according to an article in The Verge, students running a software simulation didn't know how to determine their location. In a world where the current generation have grown up […] The post #212 – File Not Found appeared first on Storage Unpacked Podcast.

The Rush Hour Melbourne Catch Up - 105.1 Triple M Melbourne - James Brayshaw and Billy Brownless
Idiot File, Emma Freedman, Friday Brag Artist - The Rush Hour podcast - Friday 1st October 2021

The Rush Hour Melbourne Catch Up - 105.1 Triple M Melbourne - James Brayshaw and Billy Brownless

Play Episode Listen Later Oct 1, 2021 36:38


Joey singing, we want a parma real bad, The Cats Port and Giants all had their B&Fs last night, free agency news, trade period starts Monday, NRL Grand Final in doubt, Wallabies vs Argentina, Emma Freedman, Friday Brag Artist, Idiot File, Billy's Joke See omnystudio.com/listener for privacy information.

The Accountability Minute:Business Acceleration|Productivity
Idea #7 to Help You Get Even More Stuff Done

The Accountability Minute:Business Acceleration|Productivity

Play Episode Listen Later Sep 30, 2021 1:19


Today we are talking about another idea to help you get even more done, which is to tame your “In basket”. Don't allow your desk to become a giant “In tray”. When new paperwork arrives, sort it into “Action” or “File” trays. Your “Action” tray can consist of tasks that require urgent attention and those that don't. Make a note in your day planner/master task list to follow-up on jobs that are not urgent, so you don't have them floating around in your head hoping you will remember to do them at some point in time. This is also true for things that are electronic and no longer paper. Have electronic file folders for what you need to work on, so you can easily open those folders when you need to and everything is there. Tune in tomorrow for another way to get even more stuff done. If you get value from these Podcasts, please take a minute to leave me a short rating and review. I would really appreciate it and always love to hear from you. Take advantage of all the complimentary business tips and tools by joining the Free Silver Membership on https://www.accountabilitycoach.com/coaching-store/inner-circle-store/. Subscribe to my high-value business success tips and resources Blog (https://www.accountabilitycoach.com/blog/) Want more from The Accountability Coach™, subscribe to more high-value content by looking for me on https://www.accountabilitycoach.com/my-podcast/ and on most podcast platforms and in most English-speaking countries, or by going to https://itunes.apple.com/podcast/accountabilitycoach.com/id290547573. Subscribe to my YouTube channel with business success principles (https://www.youtube.com/annebachrach) Connect with me on Linked-In (https://www.linkedin.com/in/annebachrach) Connect with me on Pinterest (https://pinterest.com/resultsrule/) Connect with me on Instagram (https://www.instagram.com/annebachrach/) Connect with me on Facebook (https://www.facebook.com/TheAccountabilityCoach) Go to https://www.accountabilitycoach.com to check out for yourself how I, as your Accountability Coach™, can help you get and stay focused on you highest payoff activities that put you in the highest probability position to achieve your professional and personal goals, so you can enjoy the kind of business and life you truly want and deserve. As an experienced accountability coach and author of 5 books, I help business professionals make more money, work less, and enjoy even better work life balance. Check out my proven business accelerator resources by going to https://www.accountabilitycoach.com/coaching-store/. Aim for what you want each and every day! Anne Bachrach The Accountability Coach™ Business professionals and Advisors who utilize Anne Bachrach's proven business-success systems make more money, work less, and enjoy better work life balance. Author of Excuses Don't Count; Results Rule, Live Life with No Regrets, No Excuses, the Work Life Balance Emergency Kit and more. Get your audio copies today.

State of the Save
September 2021 Nintendo Direct: File Corrupted Ep 12

State of the Save

Play Episode Listen Later Sep 29, 2021 94:47


Eric and Michael get together to talk about the September Nintendo Direct and talk what games that came out of the show that there excited for. As always, we also talk what games we been playing and throw in the random off topic conversation to keep you on your toes. Remember, you can send your emails in to stateofthesave@gmail.com and follow us @stateofthesave on Twitter, Instagram, and Tik Tok. Metro — Scandinavianz [Audio Library Release] Music provided by Audio Library Plus Watch: https://youtu.be/NPKwINq8D_4 Free Download / Stream: https://alplus.io/metro Jungle Mood — Peyruis [Audio Library Release] Music provided by Audio Library Plus Watch: https://youtu.be/AE4AWGTNa-A Free Download / Stream: http://alplus.io/JungleMood Track: Blue — Declan DP [Audio Library Release] Music provided by Audio Library Plus Watch: https://youtu.be/Tu63TwPG0RA​ Free Download / Stream: https://alplus.io/Blue​ --- This episode is sponsored by · Anchor: The easiest way to make a podcast. https://anchor.fm/app

Camp Here & There
FILE 16. The Reality of Hallucination

Camp Here & There

Play Episode Listen Later Sep 29, 2021 25:57


Content warnings: auto-cannibalism, brief mention of throwing up. Audio data from various sources, detailing the events which occurred at SITE2 on day 965. MAJOR INSIGHT INTO: • Recollection ability & memory details of ENTITY2 • Mental landscape of ENTITY2 MINOR INSIGHT INTO: • ENTITY1 familiarity with celestial magic • Properties & effects of ANOMALY9 • Possible confirmation of the continued existence of ENTITY0? IMPORTANT NOTES: • When we inevitably end up bringing our court to bear against AGENT15 & AGENT16, I motion to submit this file as evidence of their boundless imprudence. • And yes, I will testify against them. • I mean, really. Responding to contact from a suspect, in-person, without so much as warning you beforehand. The madmen! The mind boggles to imagine the sundry breaches in decorum they surely committed in conversation with ENTITY1. • Forgive me, AGENT1, but I'm having a hard time letting this go. I keep telling you those morons are going to send the entire operation toppling one of these days. • Please at least tell me you'll discipline them for this. I need to sleep at night. Performance by Blue Mayfield. Original music created by Will Wood. Sound effect "Cuckoo Clock, Breaking Down, A.wav" by InspectorJ. WEBSITE (transcripts available) https://mayfieldandbelov.com/ PATREON https://www.patreon.com/mayfieldandbelov DISCORD https://discord.gg/tT3Ah7x6tW INSTAGRAM @ mayfieldandbelov TWITTER @ mayfieldnbelov

The Leighton Smith Podcast
Leighton Smith Podcast Episode 130 - September 29th 2021

The Leighton Smith Podcast

Play Episode Listen Later Sep 29, 2021 85:58


On this week's podcast:We take a look at The AUKUS Alliance. New Zealand is excluded, but the introduction of nuclear powered subs into the Australian Navy has implications for us here, like it or not.Salvatore Babones, American Associate Professor at University of Sydney, examines the effects the alliance will have on this country.We turn our attention again to Wuhan.The subject of brainwashing gets our attention and, as always, we dive into the Mailroom.File your comments and complaints at Leighton@newstalkzb.co.nzHaven't listened to a podcast before? Check out our simple how-to guide.Listen here on iHeartRadioLeighton Smith's podcast also available on iTunes:To subscribe via iTunes click here

The History Network
3102 The Battle of Marathon - Part 2

The History Network

Play Episode Listen Later Sep 26, 2021 19:05


The Athenian army moved into position for the coming struggle. The right wing was commanded by Callimachus – for it was the regular practice at that time in Athens that the polemarch should lead the right wing; then followed the tribes, in order of their numbers; and, finally, on the left wing, were the Plataeans. Dur: 20mins File: .mp3

In The Thick
Feeding the Climate Monster

In The Thick

Play Episode Listen Later Sep 21, 2021 38:30


Maria and Julio get into the ongoing climate crisis with Kendra Pierre-Louis, producer and senior climate reporter with the Gimlet-Spotify podcast How to Save a Planet, and Dallas Goldtooth, organizer with the Keep It in the Ground Campaign for the Indigenous Environmental Network. They discuss how communities of color are the most impacted by climate disasters globally, and also how they are at the forefront of pushing for climate justice. ITT Staff Picks:Zahra Hirji reports on the Biden administration finally setting in place initiatives to address worker-related deaths due to extreme heat, for BuzzFeed. “The climate crisis we face has been caused by the breakdown of our relationships over time, and to solve the crisis we must repair those relationships first,” writes Jena Brooker for The Grist. Michelle Gamage interviewed four experts on what Canadian politicians should do to address the climate crisis, including protecting climate activists and creating policy led by Indigenous people, for The Tyee.Photo credit: AP Photo/Martin Meissner, File See acast.com/privacy for privacy and opt-out information.

The Chad Prather Show
Ep 510 | Attention, Woke Companies: 'Get Woke, Go Broke'

The Chad Prather Show

Play Episode Listen Later Sep 16, 2021 46:58


Since Chad is traveling a lot, he likes to do a lot of thinking. He has a theory that he wants you to challenge him on. In the last 60 years of American presidential history he believes we had three REAL presidents. Do you agree? Mayor Craig Shubert of Hudson, Ohio, gives an ULTIMATUM to school board members: resign or be charged. File this under “Get woke, go broke.” SNL alum and comedian Jim Breuer did a Facebook Live post and told his fans that he will not perform at venues requiring vaccinations. Chad has also canceled shows in venues that require vaccinations. A new poll shows that 97% of vaccinated Americans who ended friendships during COVID see their ex-friends as full-blown anti-vaxxers. While President Biden is trying to force a vaccine mandate on the American workforce, it looks like members of Congress and their staffs will be exempt from the mandate. Are you paying attention? Today's Sponsors Visit https://PrepareWithChad.com to save $70 off the 4-Week-Food Kit Visit https://PatriotMobile.com/CHAD or call 972-PATRIOT  Learn more about your ad choices. Visit megaphone.fm/adchoices