Podcasts about File

Share on
Share on Facebook
Share on Twitter
Share on Reddit
Share on LinkedIn
Copy link to clipboard
  • 3,532PODCASTS
  • 11,543EPISODES
  • 39mAVG DURATION
  • 3DAILY NEW EPISODES
  • Jul 6, 2022LATEST

POPULARITY

20122013201420152016201720182019202020212022



    Best podcasts about File

    Show all podcasts related to file

    Latest podcast episodes about File

    The Leighton Smith Podcast
    Leighton Smith Podcast Episode 163 - July 6th 2022

    The Leighton Smith Podcast

    Play Episode Listen Later Jul 6, 2022 88:55


    On this week's podcast:Every day the media utilises the term “experts”. Experts say, experts warn, experts criticise...Dr Michael Tomlinson is a Higher Education Governance and Quality consultant. He suggests that the age of deference to experts is over. He adds a much needed perspective to scientific ponderance.We comment on the J6 committee hearings, and the parlous state of the economy. And we visit The Mailroom with Mrs Producer.File your comments and complaints at Leighton@newstalkzb.co.nzHaven't listened to a podcast before? Check out our simple how-to guide.Listen here on iHeartRadioLeighton Smith's podcast also available on iTunes:To subscribe via iTunes click here

    The Killing IT Podcast
    Episode 171 - Remote Deepfakes, Roe v. Wade: Data Privacy, G7 funds Cybersecurity

    The Killing IT Podcast

    Play Episode Listen Later Jul 5, 2022 30:34


    Episode 171 - Remote Deepfakes, Roe v. Wade: Data Privacy, G7 funds Cybersecurity     Topic 1: “More” people are using Deep Fakes to apply for remote tech jobs. File under, “you thought the world couldn't get any weirder.”...   The employment crisis has borned a new adversary: Deepfake remote workers. Thankfully, their sole intent isn't to steal your job. Sort of. While these deepfake applicants are actively participating in the employment process, the function of the deepfake is to phish data where it otherwise could not. This includes, job interviews, resume data, job questions, etc.  That said, as more information is gathered via the onboarding process, the easier it becomes to synthesize a perfect candidate. And if hired, this would mean access to sensitive company data.  And considering heightened labor shortages, deepfakes may have the same hiring potential as anyone else in the pool.  People Are Using Deepfakes to Apply for Remote Tech Jobs: https://www.businessinsider.com/people-applying-remote-tech-jobs-using-deepfakes-fbi-2022-6   Topic 2: Roe v Wade: Law change implications on data privacy https://www.theverge.com/2022/6/25/23181689/online-abortion-information-ban-roe-wade-section-230-first-amendment What does overturning Roe Vs. Wade mean for privacy and data ownership law surrounding menstrual cycle tracking apps? And does HIPAA protect you as an individual or does it protect the company that owns your medical information? We discuss the legal protection or lack thereof surrounding the new implications of Roe V. Wade in the digital landscape.    Topic 3: G7 funding cybersecurity . . . and setting the U.S. as the standard-bearer.  We're the good guys, right? So we should obviously write the rules. However, if we continue to "cut-off" those within the realm of what we as westerns deem as the good guys, we might create an even badder....well, bad guy.  Key State Official Warns of ‘Peril' as US Pursues Cybersecurity Goals at G7 - Nextgov: https://www.nextgov.com/cybersecurity/2022/06/key-state-official-warns-peril-us-pursues-cybersecurity-goals-g7/368664 See also: https://www.whitehouse.gov/briefing-room/statements-releases/2022/04/28/fact-sheet-united-states-and-60-global-partners-launch-declaration-for-the-future-of-the-internet/  Sponsor Memo: Acronis Are you still relying on a frustrating patchwork of legacy solutions? Modernize your cybersecurity and data protection with Acronis Cyber Protect Cloud. It's a single solution that combines backup, anti-malware, and endpoint protection management. As an MSP, you can easily improve clients' security posture, eliminate complexity, and generate more recurring revenue. Learn more about Acronis Cyber Protect Cloud at Acronis.com. Keywords / tags :-)

    MacMost - Mac, iPhone and iPad How-To Videos
    Exporting From Mac Photos (MacMost #2740)

    MacMost - Mac, iPhone and iPad How-To Videos

    Play Episode Listen Later Jul 5, 2022


    View in HD at . Learn the various ways you can export files from the Photos app on your Mac. You can do a simple drag-and-drop, but you'll get more options if you use File, Export. You can also export directly to another app, or save as a PDF.

    The History Network
    3208 The Battle of Issus

    The History Network

    Play Episode Listen Later Jul 3, 2022 19:45


    At the battle of Issus, fought in early November 333 BC, Alexander faced the Persian King Darius in person for the first time. Massively outnumbered, the Macedonian army faced the numberless might of the Persian military machine. The outcome would decide the future of both the Persian and the Macedonian empire. Dur: 20mins File: .mp3

    Not In a Creepy Way
    NIACW 468 Hell or High Water

    Not In a Creepy Way

    Play Episode Listen Later Jul 3, 2022 51:07


    Brothers Drew and Eric discuss the languid second film in the Taylor Sheridan's American Frontier trilogy, Hell or High Water   Housekeeping begins at 44:30 during which they discuss We Own the City and resource management.   File length 51:06 File Size 38.0 MB Theme by Jul Big Green via SongFinch Subscribe to us on Apple Podcasts Listen to us on Stitcher Like us on Facebook Follow us on Twitter Send your comments to show@notinacreepyway.com Visit the show website at Error! Hyperlink reference not valid.>

    Spidell's California Minute
    Top reasons for e-file rejections

    Spidell's California Minute

    Play Episode Listen Later Jul 1, 2022 4:18


    This week we're covering the top reasons for e-file rejections for business and individual returns.

    The Tonka Toy Podcast
    First Up Radio 06/30/22

    The Tonka Toy Podcast

    Play Episode Listen Later Jun 30, 2022 47:15


    www.facebook.com/TonkaTheDJ www.twitter.com/djtonkatoy www.instagram.com/tonkathedj #LLBossHogg TITLE "22:43" FILE "firstup radio 06-892xcx.mp3" MP3   TRACK 01 AUDIO     TITLE "Apple of My Eye"     PERFORMER "Rick Ross"     INDEX 01 00:00:00   TRACK 02 AUDIO     TITLE "Ice Cold (Album Version (Edited)) [feat. Omarion] (feat  Omarion)"     PERFORMER "Rick Ross"     INDEX 01 03:14:00   TRACK 03 AUDIO     TITLE "Throw It In The Bag (Album Version (Edited))"     PERFORMER "Fabolous feat. The-Dream"     INDEX 01 05:56:00   TRACK 04 AUDIO     TITLE "Street Light (feat. Sean Garrett"     PERFORMER "Plies"     INDEX 01 07:18:00   TRACK 05 AUDIO     TITLE "Play No Games"     PERFORMER "Trick Daddy"     INDEX 01 08:28:00   TRACK 06 AUDIO     TITLE "F*** You (Album Version (Edited)) [feat. Devin a/k/a The Dude & Snoop Dogg] (feat  Devin a k a The Dude & Snoop Dogg)"     PERFORMER "Dr. Dre"     INDEX 01 10:28:00   TRACK 07 AUDIO     TITLE "Excuse Me Miss"     PERFORMER "Jay-Z"     INDEX 01 12:51:00   TRACK 08 AUDIO     TITLE "Between Me & You (Album Version (Edited)) [feat. Christina Milian] (feat  Christina Milian)"     PERFORMER "Ja Rule"     INDEX 01 14:21:00   TRACK 09 AUDIO     TITLE "How (feat. Roddy Ricch)"     PERFORMER "Ella Mai feat. Roddy Ricch"     INDEX 01 16:17:00   TRACK 10 AUDIO     TITLE "Girl I'm a Bad Boy"     PERFORMER "Fat Joe feat. Dre"     INDEX 01 18:19:00   TRACK 11 AUDIO     TITLE "Me And You (clean)"     PERFORMER "Stuey Rock feat. Sy Ari"     INDEX 01 19:26:00   TRACK 12 AUDIO     TITLE "Colonel Loud - California (Prod. By Mr. Hanky)"     PERFORMER "Colonel Loud - California feat. Young Dolph, Ricco Barrino, (Prod. By Mr. Hanky) Radio"     INDEX 01 21:18:00   TRACK 13 AUDIO     TITLE "Unforgettable"     PERFORMER "French Montana feat. Swae Lee"     INDEX 01 22:39:00   TRACK 14 AUDIO     TITLE "Come to Me"     PERFORMER "Sean "Diddy" Combs feat. Nicole Scherzinger"     INDEX 01 24:19:00   TRACK 15 AUDIO     TITLE "Down for Me (2016 Remaster)"     PERFORMER "Loon feat. Mario Winans"     INDEX 01 25:49:00   TRACK 16 AUDIO     TITLE "Hey Luv (Anything)"     PERFORMER "Mobb Deep"     INDEX 01 28:03:00   TRACK 17 AUDIO     TITLE "Die Hard"     PERFORMER "Kendrick Lamar, Blxst & Amanda Reifer"     INDEX 01 29:53:00   TRACK 18 AUDIO     TITLE "LA-LA-LA"     PERFORMER "Jay-Z"     INDEX 01 31:19:00   TRACK 19 AUDIO     TITLE "Nasty Girl (Edit) [feat. Carl Thomas] (feat  Carl Thomas)"     PERFORMER "Jadakiss feat. Carl Thomas"     INDEX 01 33:24:00   TRACK 20 AUDIO     TITLE "Lets Get It In (Clean)"     PERFORMER "Lloyd feat. 50 Cent"     INDEX 01 35:07:00   TRACK 21 AUDIO     TITLE "I Need a Girl (Pt. 2) [feat. Ginuwine, Loon, Mario Winans & Tammy Ruggieri] (2016 Remaster)"     PERFORMER "Sean "Diddy" Combs"     INDEX 01 35:56:00   TRACK 22 AUDIO     TITLE "Track Star (Audio)"     PERFORMER "Mooski"     INDEX 01 38:18:00   TRACK 23 AUDIO     TITLE "Lights, Camera, Action (Radio)"     PERFORMER "Mr. Cheeks"     INDEX 01 39:46:00   TRACK 24 AUDIO     TITLE "First Class"     PERFORMER "Jack Harlow"     INDEX 01 41:20:00   TRACK 25 AUDIO     TITLE "Here I Am (Album Version (Edited)) [feat. Nelly & Avery Storm] (feat  Nelly & Avery Storm)"     PERFORMER "Rick Ross"     INDEX 01 43:36:00   TRACK 26 AUDIO     TITLE ""I Don't Mind " (CLEAN)"     PERFORMER "Usher feat. Juicy J"     INDEX 01 45:59:00

    Monica Matthews - Somebody's Got To Say It
    Parents File Suit - America First Legal Taking On Marxists Edu, Nancy Pelosi 's Communion

    Monica Matthews - Somebody's Got To Say It

    Play Episode Listen Later Jun 30, 2022 22:30


    Parents across the nation are taking on their school boards. Loudon County is ground zero. Nancy Pelosi made quite the stink again regarding communion, what does the Word say about it?See Privacy Policy at https://art19.com/privacy and California Privacy Notice at https://art19.com/privacy#do-not-sell-my-info.

    KPFA - The Pacifica Evening News, Weekdays
    NATO formally invites Finland and Sweden to join the military alliance; N. Korea accuses US, S. Korea and Japan of creating an Asian version of NATO; Environmental groups file lawsuit challenging the Biden's decision to resume oil and gas sales; Cherokee

    KPFA - The Pacifica Evening News, Weekdays

    Play Episode Listen Later Jun 29, 2022


    The Tonka Toy Podcast
    First Up Radio 06/29/22

    The Tonka Toy Podcast

    Play Episode Listen Later Jun 29, 2022 49:01


    FILE "firstup radio 06-87x2xcx (1).mp3" MP3   TRACK 01 AUDIO     TITLE "Drip Like Dis"     PERFORMER "Bankroll Freddie"     INDEX 01 00:00:00   TRACK 02 AUDIO     TITLE "Still"     PERFORMER "Lil Wayne"     INDEX 01 01:22:00   TRACK 03 AUDIO     TITLE "Gangsta Party"     PERFORMER "Yo Gotti feat. Bun B & 8 Ball"     INDEX 01 02:50:00   TRACK 04 AUDIO     TITLE "Major Bag Alert"     PERFORMER "DJ Khaled"     INDEX 01 03:43:00   TRACK 05 AUDIO     TITLE "Modern Day"     PERFORMER "Migos"     INDEX 01 04:45:00   TRACK 06 AUDIO     TITLE "Talking To My Scale"     PERFORMER "Paper Route Empire & Young Dolph"     INDEX 01 06:59:00   TRACK 07 AUDIO     TITLE "Free Foo"     PERFORMER "Foogiano"     INDEX 01 08:47:00   TRACK 08 AUDIO     TITLE "Shit Crazy"     PERFORMER "Gucci Mane feat. BIG30"     INDEX 01 09:34:00   TRACK 09 AUDIO     TITLE "thought i was playing"     PERFORMER "Gunna & 21 Savage"     INDEX 01 11:35:00   TRACK 10 AUDIO     TITLE "CHICKENS (Clean)"     PERFORMER "Future"     INDEX 01 13:41:00   TRACK 11 AUDIO     TITLE "Backend"     PERFORMER "Bankroll Freddie"     INDEX 01 15:02:00   TRACK 12 AUDIO     TITLE "JUST SAY THAT (feat. Glorilla)"     PERFORMER "Duke Deuce feat. Glorilla"     INDEX 01 16:10:00   TRACK 13 AUDIO     TITLE "F.N.F. (Let's Go)"     PERFORMER "Hitkidd & Glorilla"     INDEX 01 17:27:00   TRACK 14 AUDIO     TITLE "Bang (Album Version (Edited)) (feat. T.I. & Lil Scrappy)"     PERFORMER "Young Jeezy feat. T.I. & Lil Scrappy"     INDEX 01 19:02:00   TRACK 15 AUDIO     TITLE "Big Money"     PERFORMER "Money Man"     INDEX 01 21:18:00   TRACK 16 AUDIO     TITLE "Chanel Fix (feat. Landstrip Chip)"     PERFORMER "Vory feat. Landstrip Chip"     INDEX 01 22:30:00   TRACK 17 AUDIO     TITLE "Bottom Of The Map (Album Version (Edited))"     PERFORMER "Young Jeezy"     INDEX 01 24:30:00   TRACK 18 AUDIO     TITLE "Knockin' Doorz Down"     PERFORMER "Pimp C"     INDEX 01 26:55:00   TRACK 19 AUDIO     TITLE "Air Forces (Album Version (Edited))"     PERFORMER "Young Jeezy"     INDEX 01 28:08:00   TRACK 20 AUDIO     TITLE "Give Me That"     PERFORMER "Webbie"     INDEX 01 30:25:00   TRACK 21 AUDIO     TITLE "Preach (Intro Clean)"     PERFORMER "Young Dolph"     INDEX 01 32:52:00 TRACK 01 AUDIO     TITLE "Febreze"     PERFORMER "DeeYounginn"     INDEX 01 00:00:00   TRACK 02 AUDIO     TITLE "All My Life"     PERFORMER "EST Gee"     INDEX 01 01:27:00   TRACK 03 AUDIO     TITLE "Neighborhood Superstar"     PERFORMER "DaBaby & Youngboy Never Broke Again"     INDEX 01 02:23:00   TRACK 04 AUDIO     TITLE "Pop Out"     PERFORMER "DeeYounginn feat. 2X"     INDEX 01 04:14:00   TRACK 05 AUDIO     TITLE "BOP"     PERFORMER "Fredo Bang"     INDEX 01 05:33:00   TRACK 06 AUDIO     TITLE "Addicted"     PERFORMER "Chris Brown feat. Lil Baby"     INDEX 01 06:59:00   TRACK 07 AUDIO     TITLE "FTW"     PERFORMER "NoCap"     INDEX 01 09:47:00   TRACK 08 AUDIO     TITLE "Palm Trees In Memphis"     PERFORMER "Yo Gotti"     INDEX 01 11:38:00

    The Leighton Smith Podcast
    Leighton Smith Podcast Episode 162 - June 29th 2022

    The Leighton Smith Podcast

    Play Episode Listen Later Jun 28, 2022 84:12


    On this week's podcast:Bruce Cotterill is a “transformation leader” with experience in real estate, media, financial services, technology, and retail. A CEO in both Australia and New Zealand, he's a highly regarded business communicator. We dig into what is not right with NZ, and what we need to do to fix it. After listening, you'll want to know why he's not running the country. We make comment on Roe v Wade, and we take a visit to The Mailroom.File your comments and complaints at Leighton@newstalkzb.co.nzHaven't listened to a podcast before? Check out our simple how-to guide.Listen here on iHeartRadioLeighton Smith's podcast also available on iTunes:To subscribe via iTunes click here

    In The Thick
    A Post-Roe Reality

    In The Thick

    Play Episode Listen Later Jun 28, 2022 38:55


    Maria and Julio are joined by Kimberly Atkins Stohr, senior opinion writer for The Boston Globe and The Emancipator, and Jessica Mason Pieklo, senior vice president of Rewire News Group and co-host of the podcast Boom! Lawyered. They unpack the Supreme Court ruling to overturn Roe v. Wade and how this will affect people throughout the country. They also get into other recent decisions and discuss how Democrats should be responding.  ITT Staff Picks: In their latest episode of Boom! Lawyered, co-hosts Jessica Mason Pieklo and Imani Gandy react to the Supreme Court's decision to overturn Roe v. Wade. For The Boston Globe, writer Kimberly Atkins Stohr unpacks Justice Stephen Breyer's dissenting opinion to the Supreme Court's decision to strike down New York's concealed carry law. “The Supreme Court made this decision today and, unfortunately, your geographical location affects your autonomy,” the administrator of one Texas abortion clinic said she told waiting patients, in this piece by Chabeli Carrazana for The 19th. Photo credit: AP Photo/Rick Bowmer, File

    APNow
    Fraud in the Vendor File: How to Prevent It

    APNow

    Play Episode Listen Later Jun 28, 2022 10:03


    Fraud through the vendor file. Most business professionals never think the weak master vendor file practices can facilitate fraud and thus don't prevent it. Whether you call it the vendor file, the supplier file, the master vendor file or the vendor master file, the outcome is the same. #Fraud facilitated by poor practices related to the #mastervendorfile happens more frequently than you might imagine. These weak practices sometimes also enable duplicate #payments. The issue of Fraud in the Vendor File and How to Prevent It is one that is frequently overlooked and thus Vendor file fraud is allowed to flourish. Frauds in the Vendor File happen everywhere if you don't know how to Prevent Them. Learning how to detect vendor fraud is not difficult, especially with common vendor fraud schemes that are not overly sophisticated. Usually, fraud facilitated by weak master vendor file practices is a type of occupational fraud. Link to Fraud Protection Roundtable Discussion https://youtu.be/CqEPqoO-n_I Link to Password Stupidity https://youtu.be/ChiqWwJ-DIo Master vendor file and fraud and be prevented by using master vendor file best practices and regularly reviewing changes made to the vendor file. The master vendor file function is often not given the attention it deserves, making the vendor master file prone to the mal  intentions of fraudsters. The supplier file is used for making payments. Ideally, the master vendor file and separation of duties are strong. Changes to the master vendor file should be verified to prevent accounts payable fraud. The techniques used to prevent vendor file fraud will also put a damper on duplicate payments. Host: Mary Schaeffer (www.ap-now.com)

    File Not Found
    ลูกสาวสุดเลือดเย็น กับหุ่นเชิดผู้ถูกขายฝัน ที่ไม่มีวันเป็นจริง Part 2 | File Not Found EP.120

    File Not Found

    Play Episode Listen Later Jun 28, 2022 60:59


    นี่คือ Part 2 จุดจบของคดีฆาตกรรมสุดฉงน ที่เต็มไปด้วยเรื่องราวคำโกหกหลอกลวงมากมาย โดยใน EP. นี้ เราจะย้อนกลับไปถึง จุดเริ่มต้นของเรื่องราวทั้งหมด ตั้งแต่เหยื่อคนแรกของ โยฮันนา โมลเลอร์ ความเลือดเย็นที่ไม่ปรานีใครของเธอ รวมถึงชีวิตที่ยากลำบากของ โมฮัมหมัด ราจาบี หุ่นเชิดของโยลันนา ที่ถูกขายฝัน ที่ตอนนี้นั้นจะไม่มีวันเป็นไปได้อีกต่อไป . ติดตามตอนจบของหนึ่งในคดีฆาตกรรมที่สะเทือนใจคนทั้งประเทศสวีเดนมากที่สุดคดีหนึ่ง ได้แล้วตอนนี้ .  .  ติดต่อสปอนเซอร์ อีเมล contact@missiontothemoon.co หรือ โทร. 084 089 5935  .  .  ติดตาม Mission To Pluto Media ได้ที่  .  Website: https://bit.ly/3ehucCm​​​​​​  Facebook: https://bit.ly/3jQrJQu​​​​​​  Twitter: https://bit.ly/2TKNJC4​​​​​​  Blockdit: https://bit.ly/3kK16OB​​​​​​  YouTube: https://bit.ly/35YVGcx​​​​​​  TikTok: https://bit.ly/3mFzZF1​​​​​​  SoundCloud: https://bit.ly/34M6B9S​​​​​​  Podbean: https://bit.ly/34VsrZd​​​​​​  Spotify: https://spoti.fi/3eju4CI​​​​​​  Apple Podcast: https://apple.co/2TMh3Im​​​  .  . #MissionToPlutoPodcast #FileNotFoundPodcast

    Mission to Pluto Podcast
    ลูกสาวสุดเลือดเย็น กับหุ่นเชิดผู้ถูกขายฝัน ที่ไม่มีวันเป็นจริง Part 2 | File Not Found EP.120

    Mission to Pluto Podcast

    Play Episode Listen Later Jun 28, 2022 60:59


    นี่คือ Part 2 จุดจบของคดีฆาตกรรมสุดฉงน ที่เต็มไปด้วยเรื่องราวคำโกหกหลอกลวงมากมาย โดยใน EP. นี้ เราจะย้อนกลับไปถึง จุดเริ่มต้นของเรื่องราวทั้งหมด ตั้งแต่เหยื่อคนแรกของ โยฮันนา โมลเลอร์ ความเลือดเย็นที่ไม่ปรานีใครของเธอ รวมถึงชีวิตที่ยากลำบากของ โมฮัมหมัด ราจาบี หุ่นเชิดของโยลันนา ที่ถูกขายฝัน ที่ตอนนี้นั้นจะไม่มีวันเป็นไปได้อีกต่อไป . ติดตามตอนจบของหนึ่งในคดีฆาตกรรมที่สะเทือนใจคนทั้งประเทศสวีเดนมากที่สุดคดีหนึ่ง ได้แล้วตอนนี้ .  .  ติดต่อสปอนเซอร์ อีเมล contact@missiontothemoon.co หรือ โทร. 084 089 5935  .  .  ติดตาม Mission To Pluto Media ได้ที่  .  Website: https://bit.ly/3ehucCm​​​​​​  Facebook: https://bit.ly/3jQrJQu​​​​​​  Twitter: https://bit.ly/2TKNJC4​​​​​​  Blockdit: https://bit.ly/3kK16OB​​​​​​  YouTube: https://bit.ly/35YVGcx​​​​​​  TikTok: https://bit.ly/3mFzZF1​​​​​​  SoundCloud: https://bit.ly/34M6B9S​​​​​​  Podbean: https://bit.ly/34VsrZd​​​​​​  Spotify: https://spoti.fi/3eju4CI​​​​​​  Apple Podcast: https://apple.co/2TMh3Im​​​  .  . #MissionToPlutoPodcast #FileNotFoundPodcast

    The Dallas Morning News
    6/28/22: Texas abortion providers file lawsuit… and more news

    The Dallas Morning News

    Play Episode Listen Later Jun 28, 2022 3:03


    Texas abortion providers file lawsuit, seek to temporarily resume procedures; Neiman Marcus adds travel to abortion benefits after Roe v. Wade overturned; Security officer arrested after woman fatally shot at Dallas strip club XTC Cabaret; 15 lawyers want Dallas County Judge Amber Givens recused from 104 criminal cases

    True Crime Arizona
    Finding Robert Fisher Episode 2: The Evidence File

    True Crime Arizona

    Play Episode Listen Later Jun 28, 2022 39:21


    Who was Robert Fisher? Details unravel about the odd conversations and personality traits he displayed leading up to the murders and house explosion. Meanwhile, for the first time, we get exclusive access to the full evidence file and crime scene photos that reveal new details and tips about the investigation. See the photos here

    Cryptic Files
    #40 - The Girl in The Hoodie: Why Part 3 Will Remain in The Cryptic File

    Cryptic Files

    Play Episode Listen Later Jun 27, 2022 14:29


    Welcome back to another episode of "It's Cryptic Out There." First off, we would like to apologize to everyone who was looking forward to the third part of "The Girl in The Hoodie" series. In this episode, we will elaborate on why we removed it and just how cryptic it got for us. We hope everyone understands when tuning into this episode. Thanks everyone! Cryptic Hotline: (540) 358-1583 https://www.instagram.com/itscrypticoutthere https://www.facebook.com/groups/2531530113816495/about/ https://www.youtube.com/channel/UC_1q0phngPjIJ8hssiigT0w itscrypticoutthere@gmail.com https://www.patreon.com/crypticoutthere

    Hudson Mohawk Magazine
    Public Employees for Environmental Responsibility File FTC Complaint Over Artificial Turf

    Hudson Mohawk Magazine

    Play Episode Listen Later Jun 27, 2022 11:10


    On Thursday, the Public Employees for Environmental Responsibility (PEER) filed a complaint with the Federal Trade Commission over greenwashing claims made by manufacturers of artificial turf. Greenwashing is a term that refers to when a polluting practices is advertised as environmentally sustainable. The complaint catalogs examples of marketing pitches that removed artificial turf is recyclable and is being sent to domestic recycling facilities. This not true because: There are no turf recycling plants in the U.S.; Used turf is not being exported to the two known recycling plants in Europe; and Artificial turf is extremely difficult and expensive to recycle since all the different plastics, rubber, and other materials used must be separated from each other. “Artificial turf makers and vendors use recycling claims as a promotional ploy to portray this product as an environmentally responsible alternative to traditional grass fields – but it is not,” stated PEER Science Policy Director Kyla Bennett, a scientist and attorney formerly with the U.S. Environmental Protection Agency. “The recycling claim for turf is illegal greenwashing.” Each synthetic field usually covers about 80,000 square feet with roughly 400,000 pounds of infill (often shredded tires). These fields typically have a design life of eight to ten years. There are an estimated 13,000 syn-turf fields in the U.S. Hundreds of fields installed in past decade are at or beyond their life spans, with that total growing each month. When removed, the old turf is sent to a landfill or, as often appears, is illegally dumped. Plastic turf fields contribute pollution through runoff of microplastics and toxic chemicals like PFAS, as well as off-gassing toxic emissions. They can also become heat islands, with surface temperatures in excess of 180 degrees Fahrenheit on sunny days. This puts players, especially children, at risk of heat stroke and injury. PEER is hosting an online info meeting on artificial turf in New York on Tuesday, June 28 at 12pm ET. You can register here: https://www.citizenscampaign.org/whats-new-at-cce/2022/6/9/what-are-the-problems-with-artificial-turf-you-have-questions-we-have-answers To learn more about Public Employees for Environmental Responsibility, visit PEER.org Image: Discarded Artifical Turf (Rome Sentinel)

    Rank & File Podcast
    The CEO Solution for When Life Gets in the Way | Episode #109

    Rank & File Podcast

    Play Episode Listen Later Jun 27, 2022 33:04


    Learn how to take back control of your life so you have time for the purpose-driven business you would love to launch and grow. The post The CEO Solution for When Life Gets in the Way | Episode #109 appeared first on Rank & File.

    Nights with Steve Price: Highlights
    Craig Bennett's Showbiz File – 27th June

    Nights with Steve Price: Highlights

    Play Episode Listen Later Jun 27, 2022 9:57


    Few Hollywood reporters have their fingers in as many pies as Craig Bennett. The glamour city is overflowing with juice, ripe for the picking with Clinton Maynard. See omnystudio.com/listener for privacy information.

    Unethical Podcast
    Episode 73: “Stop saying taint-hole!” – The Chris Chanthology Part 5 (The Lost File Update)

    Unethical Podcast

    Play Episode Listen Later Jun 27, 2022 107:27


    *EXPLICIT CONTENT WARNING* WE APOLOGIZE. THE FIRST RELEASE OF THIS EPISODE WAS MISSING ABOUT 20 MINUTES OF CONTENT. WE HAVE RECOVERED THE LOST CHRIS CHAN FILE. PLEASE ENJOY. In this episode the beautiful Chriserpillar emerges from her wondrous cocoon as a woman. Soon even more will be emerging from place even more wondrous. And I'm not just referring to pepper spray emerging from a can of mace. Get 20% OFF @manscaped + Free Shipping with promo code UNETHICAL20 at MANSCAPED.com! #ad #manscapedpod JOIN THE UNETHICULT FOLLOW US ON INSTAGRAM BUY  UNETHICAL MERCH DONATE ON KO-FI Music by: Chandler Edom Thomas

    The Tonka Toy Podcast
    First Radio 06/26/22

    The Tonka Toy Podcast

    Play Episode Listen Later Jun 27, 2022 31:00


    TITLE "22:01" FILE "firstup radio 06-26xxcx.mp3" MP3   TRACK 01 AUDIO     TITLE "Gotta Move On"     PERFORMER "Sean "Diddy" Combs & Bryson Tiller"     INDEX 01 00:00:00   TRACK 02 AUDIO     TITLE "SET ADRIFT ON MEMORY BLISS"     PERFORMER "P.M.DAWN"     INDEX 01 01:47:00   TRACK 03 AUDIO     TITLE "Live This Life (Album Version (Edited))"     PERFORMER "Big Sean feat. The-Dream"     INDEX 01 03:49:00   TRACK 04 AUDIO     TITLE "Zodiac Killer"     PERFORMER "Mooski"     INDEX 01 05:48:00   TRACK 05 AUDIO     TITLE "Possessive"     PERFORMER "Chris Brown feat. Lil Wayne & BLEU"     INDEX 01 07:25:00   TRACK 06 AUDIO     TITLE "WE (Warm Embrace)"     PERFORMER "Chris Brown"     INDEX 01 09:53:00   TRACK 07 AUDIO     TITLE "On Your Body (Clean)"     PERFORMER "Chinx feat. Meet Sims"     INDEX 01 11:40:00   TRACK 08 AUDIO     TITLE "Walk Thru (Intro) Radio)"     PERFORMER "Rich Homie Quan feat. Problem"     INDEX 01 13:25:00   TRACK 09 AUDIO     TITLE "Hrs and ... (Clean Mixshow Edit)"     PERFORMER "Muni Long"     INDEX 01 15:44:00   TRACK 10 AUDIO     TITLE "MY GOD"     PERFORMER "Jor'dan Armstrong"     INDEX 01 16:29:00   TRACK 11 AUDIO     TITLE "Diamond Girl (Remix)"     PERFORMER "Ryan Leslie feat. Kanye West"     INDEX 01 17:46:00   TRACK 12 AUDIO     TITLE "Might Let You"     PERFORMER "Tink feat. DaVido"     INDEX 01 18:34:00   TRACK 13 AUDIO     TITLE "Mr. Big Shot"     PERFORMER "Nicole Bus"     INDEX 01 20:38:00   TRACK 14 AUDIO     TITLE "AIGHT"     PERFORMER "WESTSIDE BOOGIE & Shelley FKA DRAM"     INDEX 01 22:27:00   TRACK 15 AUDIO     TITLE "Somebody Else"     PERFORMER "Mario feat. Nicki Minaj"     INDEX 01 23:16:00   TRACK 16 AUDIO     TITLE "What To Do"     PERFORMER "Rotimi"     INDEX 01 25:16:00   TRACK 17 AUDIO     TITLE "Hold Yuh (Remix) (Clean)"     PERFORMER "Gyptian feat. Nicki Minaj"     INDEX 01 27:01:00   TRACK 18 AUDIO     TITLE "NO LETTING GO"     PERFORMER "WAYNE WONDER"     INDEX 01 28:54:00   TRACK 19 AUDIO     TITLE "Jerusalema (Remix) (Feat. Burna Boy and Nomcebo)"     PERFORMER "Master KG"     INDEX 01 29:56:00

    First Aid Spray Podcast
    053 - Comic Club: Resident Evil Official Comic Magazine

    First Aid Spray Podcast

    Play Episode Listen Later Jun 25, 2022 109:42


    Get 20% OFF @manscaped + Free Shipping with promo code FASPRAYPOD at MANSCAPED.com! #ad #manscapedpod This is First Aid Spray - a Resident Evil podcast by fans, for fans! Join us as we flip through the pages of WildStorm's Resident Evil: Official Comic Magazine! In the debut of comic club we read stories set around the first two games and a bunch of truly wild things. Yes, BOWs in Zoos but also on random islands, planes and in schools! Hear about werewolves in Resi before Village and “Barry in Die Hard”. It's a truly strange experience. In the news: Village Gold Edition, RE:Verse and next gen upgrades for RE7, RE2R and RE3R! Find more at http://FASprayPod.com Join our Discord server: http://discordapp.com/invite/hKmmFGG Support the show: http://patreon.com/FASprayPod Twitter: http://twitter.com/FASprayPod Instagram: http://www.instagram.com/FASprayPod Facebook: http://facebook.com/FASprayPod YouTube: http://youtube.com/FirstAidSprayPodcast Twitch: http://twitch.tv/FASprayPod Panel: Psy (http://twitter.com/psyniac_123), Steve (http://twitter.com/FBStevewastaken), James (http://twitter.com/MoistOwletteOff) and Sherwin (http://twitter.com/sherwinsagenda). Contributors: RETINA (http://twitter.com/RETINA8719) and N7Lionheart (http://twitter.com/N7_Lionheart). (6:04) News (23:02) File reading (24:35) Comic Club: RE Official Comic Magazine (1:01:55) File reading (1:02:59) Comic Club: RE Official Comic Magazine Logo by www.twitch.tv/brinnstar First Aid Spray banner design by http://deviantart.com/EmzelWolf “First Aid Spray” theme by Mono Memory (http://twitter.com/MonoMemory85). All other music is ™ and © Capcom and their original composers.

    News File
    Joy News File

    News File

    Play Episode Listen Later Jun 25, 2022 179:11


    Analysis and discussion of news and current affairs in Ghana with panellists

    The Best of the Money Show
    Friday File - The alchemy of making brandy

    The Best of the Money Show

    Play Episode Listen Later Jun 24, 2022 10:44


    Guest: Daniel Nel | Sixth generation distiller at Boplaas See omnystudio.com/listener for privacy information.

    Wasted Memory Prank Call Show
    WM Live 2022-02-22

    Wasted Memory Prank Call Show

    Play Episode Listen Later Jun 24, 2022 151:29


    Observe my driving. The wrong hotel. Water sticks. Keeping clothing. Around my age. They left their clothes behind. Small head and leaving clothes. A real crossed line mistake at the front desk. File a situation report because it went down between us. Leaving clothing behind. Practice faxes for taxes cactus. Standing on it dude. Milk door cats. Spare a dollar. Let me hit that cigarette. Free days for a room number. A full crowd. Buying smokes for kids again. Difference between cats and dogs. Bite force. Sniffing lettuce. Hands-on as a customer. Sticker on the lettuce. I went up and over. Punched by the employee. Smelling gasoline on the skin. Dragonmere has a YouTube! Subscribe Now! youtube.com/dragonmere List/Schedule of Live Shows: worldofprankcalls.com/liveshows Check out worldofprankcalls.com and phonelosers.org and prankcast.com Main site for past episodes and live streaming links: https://www.wastedshow.com The link for your rss podcast machine is: https://www.wastedmemory.com/feed/podcast/wastedshow

    3AW Breakfast with Ross and John
    RUMOUR FILE: Italian concreters chow down on 10 foot long polenta

    3AW Breakfast with Ross and John

    Play Episode Listen Later Jun 23, 2022 1:34


    This was a long weeknight meal! See omnystudio.com/listener for privacy information.

    Wings Of...Inspired Business
    Trademark Secrets: Entrepreneur Anita Mar on When to File and Why Your Brand May Need International Protection

    Wings Of...Inspired Business

    Play Episode Listen Later Jun 23, 2022 34:36


    Anita Mar is a registered trademark agent and the founder of Trademark Angel, helping clients, many of them Amazon sellers, register trademarks in the US, Canada, European Union, UK, Germany, China, Australia, Mexico and other countries since 2017. Today Anita shares the common mistakes most entrepreneurs make, and why international protection is necessary if you have an e-commerce or digital information business. Download Podopolo here to keep the conversation going in the Wings comments section and invite your friends to connect around podcasts recommended to you by what interests and inspires you.

    La chronique de Benaouda Abdeddaïm
    Benaouda Abdeddaïm : L'Allemagne évoque un "plan Marshall" pour reconstruire l'Ukraine, une ambition de chef de file - 23/06

    La chronique de Benaouda Abdeddaïm

    Play Episode Listen Later Jun 23, 2022 4:21


    Ce jeudi 23 juin, le plan Marshall préparé par les Allemands pour la reconstruction de l'Ukraine a été abordé par Benaouda Abdeddaïm dans sa chronique, dans l'émission Good Morning Business, présentée par Audrey Maubert et Christophe Jakubyszyn sur BFM Business. Retrouvez l'émission du lundi au vendredi et réécoutez la en podcast.

    Doughboys
    Ivar's Acres of Clams with Mookie Blaiklock (LIVE)

    Doughboys

    Play Episode Listen Later Jun 23, 2022 95:07


    Mookie Blaiklock (YOU ARE WORTHY with LilMookieB) joins the 'boys to discuss their thoughts on seafood and their flight to Seattle before a review of Ivar's. Plus, another edition of Let Me Be Frank. Recorded live at the Neptune Theatre in Seattle 6/11/22. Sources for this week's intro: https://balladofamerica.org/old-settlers-song/ https://www.historylink.org/File/2499 https://www.eater.com/2019/6/5/18642684/ivars-seafood-seattle-history https://nordicmuseum.org/exhibitions/keep-clam-and-carry-on-the-ivar-haglund-story https://www.ivars.com/our-story Want more Doughboys? Check out our Patreon!: https://patreon.com/doughboys See omnystudio.com/listener for privacy information.

    Israel News Talk Radio
    The Moral Highground – Swedish Style - The Walter Bingham File

    Israel News Talk Radio

    Play Episode Listen Later Jun 22, 2022 40:29


    The Queen: A story of counsel and quiet influence. How her subjects forgot their troubles, let their hair down and celebrated for four days. Almost: Overshadowed – the historic 6th of June, when in 1944 156,000 Allied troops landed on the beeches of Normandy in the largest wartime amphibious operation in history, that signalled the end of Hitler's dream to dominate the world. The Swedes: On June 6th Sweden celebrated their National Day. During the month, the Swedish Ambassador to Israel also opened an exhibition about Sweden's 70 years of diplomatic presence in Israel. Hear: A revealing interview with the Ambassador in which he discussed the reasons for Sweden's decision to break their historic ‘neutrality' and apply for membership of NATO. Also an Absolute Must: To hear his explanation, when challenged about his countries aid to the Nazi war effort during World War II. When: The end was near, Sweden's policy also changed, and they made a commendable humanitarian effort to rescue Jews. Israel: Stands once again at a political crossroad with its government in turmoil, elections probable and the left wing in decline. The true right wing, represented by the influential Sovereignty movement is in ascendance. Hear how they see the future. Our Prime Minister's: Obsession with power leads to irrevocable damage to the structure of our country, UNLESS we rise up and demand their resignation. Plus: All about the incessant arrivals in Israel of foreign statesmen and women hoping to go down in history as peacemakers between the fake ‘Palestinians' and the Jewish owners of this land. And: More The Walter Bingham File 22JUNE2022 - PODCAST

    The Logan Allec Show
    What Happens If You Don't File Your Taxes? Consequences of Not Filing!

    The Logan Allec Show

    Play Episode Listen Later Jun 22, 2022 40:57


    If you have unfiled tax returns, visit https://choicetaxrelief.com/ or call 866-8000-TAX today to schedule your FREE tax relief consultation!Today I am talking about what happens if you don't file your taxes.  I answer this question from two perspectives:- First, I talk about what happens if you don't file your taxes from a procedural program within the IRS: What will the IRS do if you don't file your tax returns?- Then, in the second part of this video, I discuss the consequences of not filing your taxes.➡️ IRS Tax Relief: Do you owe the IRS more than $10,000 in back taxes?  Call 866-8000-TAX (866-8000-829) or visit https://choicetaxrelief.com/ and let me know how much you owe to the IRS / state as well as your phone number.➡️ My Tax Relief Video Playlist: https://youtube.com/playlist?list=PLH...➡️ My Tax Relief Company: https://choicetaxrelief.com/⬇️ Other Tax Relief Videos Mentioned in This Video:- How to File Back Taxes: https://youtu.be/l4nj4ceBz_o

    North Meets South Web Podcast
    Keeping review time down, deleting your .env.example file, and securing your secrets

    North Meets South Web Podcast

    Play Episode Listen Later Jun 22, 2022 37:28


    Jake and Michael discuss some approaches to keeping pull request review times short, and using 1Password to free you of having to keep track of your environment variables.This episode is sponsored by Workvivo.Show links Go ahead, delete your .env.example file Managing secrets in Laravel with AWS Parameter Store A successful Git branching model

    Tricks of the Trade(mark)
    Recent Study Shows How Companies That File Trademarks are More Profitable

    Tricks of the Trade(mark)

    Play Episode Listen Later Jun 22, 2022 4:50


    Trademark filings at the USPTO generally track the economy and act as a predictor of the economy. In this episode Erik shares details of a recent study showing how companies that invest in trademark protection are more likely to show … Continue reading → Listen to Podcast The post Recent Study Shows How Companies That File Trademarks are More Profitable appeared first on Erik M Pelton & Associates, PLLC.

    The Leighton Smith Podcast
    Leighton Smith Podcast Episode 161- June 22nd 2022

    The Leighton Smith Podcast

    Play Episode Listen Later Jun 21, 2022 101:46


    Natasha Poole, writer, educator, athlete and Oxford graduate, displays the advantages of a great education and an independent mind. We discuss China, the WHO, the U.N. and the left's approach to education. And we speak with Owen Jennings, farmer, politician and campaigner. We talk about government stupidity around the methane tax; an assault on farmers and the economy in general.And we visit the Mailroom with Mrs Producer.File your comments and complaints at Leighton@newstalkzb.co.nzHaven't listened to a podcast before? Check out our simple how-to guide.Listen here on iHeartRadioLeighton Smith's podcast also available on iTunes:To subscribe via iTunes click here

    File on 4
    Dementia: The Final Indignity

    File on 4

    Play Episode Listen Later Jun 21, 2022 36:39


    Around 800,000 people have dementia in the UK. For those suffering from the illness, incontinence can often be seen an inevitable consequence - but that's not always the case. Deemed as too embarrassing or taboo, it's a topic that rarely hits the spotlight. Experts say preserving someone's ability to go to the toilet is crucial to maintaining their dignity and quality of life and should be a priority in care settings. But is that always happening? A new report shown exclusively to File on 4 has looked at how continence care is being managed in hospitals – and how, in some cases, those who are continent are actively encouraged to soil themselves. Datshiane Navanayagam speaks to families who say their loved ones were ignored when it came to their continence needs in hospital and that the consequences have left them with health issues and requiring additional support. Nurses and medical staff say that continence training is often seen as a ‘Cinderella subject'. We also hear from dementia patients themselves about why maintaining your own dignity and independence is so crucial with this disease. With the government set to reveal a new dementia strategy this year, will continence care be placed higher up the agenda? Reporter: Datshiane Navanayagam Producers: Emma Forde, Annabel Deas and Scott Hesketh Production Manager: Sarah Payton Journalism Assistant: Tim Fernley Editor: Carl Johnston

    Cinema File Podcast
    Cinema File: Interview with 'Wok Man' director Jeremy Thao

    Cinema File Podcast

    Play Episode Listen Later Jun 21, 2022 32:37


    Film Impact Georgia grant winner Jeremy Thao talks to arts & culture reporter Andrew Shearer about the deeply personal real-life inspitarion for his directorial debut, "Wok Man."

    File Not Found
    ลูกสาวสุดเลือดเย็น กับหุ่นเชิดผู้ถูกขายฝัน ที่ไม่มีวันเป็นจริง Part 1 | File Not Found EP.120

    File Not Found

    Play Episode Listen Later Jun 21, 2022 53:18


    ในประวัติศาสตร์อาชญากรรมของสวีเดน ฆาตกรที่ทำการฆาตกรรมคู่สามีภรรยาของตัวเองมี น้อยมาก ยิ่งฆาตกรที่ทำการฆาตกรรมพ่อแม่ของตัวเองนั้นแทบจะไม่มีเลย นั่นจึงทำให้คดีฆาตกรรมของอัน-คริสติน โมลเลอร์ และยูอัน โมลเลอร์ เป็นเหตุการณ์ที่ช็อกสังคมหัวใจของชาวสวีเดนเป็นอย่างมาก . และหญิงสาวที่ทุกคนเชื่อว่าอยู่เบื้องหลังเหตุการณ์ทั้งหมดนั้นก็คือ โยฮันนา โมลเลอร์ ลูกสาวคนเล็กของเหยื่อทั้งสองคน เพราะพฤติกรรมอันเย็นชา และท่าทางที่เต็มไปด้วยพิรุธ แต่ไม่ว่าจะทำยังไงตำรวจก็ไม่สามารถหาหลักฐานมามัดตัวเธอได้เสียที แล้วสุดท้ายคดีนี่จะได้รับการคลี่คลายหรือไม่ .  .  ติดต่อสปอนเซอร์ อีเมล contact@missiontothemoon.co หรือ โทร. 084 089 5935  .  .  ติดตาม Mission To Pluto Media ได้ที่  .  Website: https://bit.ly/3ehucCm​​​​​​  Facebook: https://bit.ly/3jQrJQu​​​​​​  Twitter: https://bit.ly/2TKNJC4​​​​​​  Blockdit: https://bit.ly/3kK16OB​​​​​​  YouTube: https://bit.ly/35YVGcx​​​​​​  TikTok: https://bit.ly/3mFzZF1​​​​​​  SoundCloud: https://bit.ly/34M6B9S​​​​​​  Podbean: https://bit.ly/34VsrZd​​​​​​  Spotify: https://spoti.fi/3eju4CI​​​​​​  Apple Podcast: https://apple.co/2TMh3Im​​​  .  . #MissionToPlutoPodcast #FileNotFoundPodcast

    The Tonka Toy Podcast
    Run it Up Radio!!!! 06//20/22 Explicit

    The Tonka Toy Podcast

    Play Episode Listen Later Jun 21, 2022 37:06


    PERFORMER "Tonka" TITLE "22:39" FILE "firstup radio 06-20xxcx.mp3" MP3   TRACK 01 AUDIO     TITLE "Trap Music"     PERFORMER ""     INDEX 01 00:00:00   TRACK 02 AUDIO     TITLE "Patrick Swayze"     PERFORMER ""     INDEX 01 01:40:00   TRACK 03 AUDIO     TITLE ". Ken Griffey Jr"     PERFORMER "DOE B feat. Jr. Boss prod by Lex Luger"     INDEX 01 02:55:00   TRACK 04 AUDIO     TITLE "Sho Nuff"     PERFORMER "Tela"     INDEX 01 04:49:00   TRACK 05 AUDIO     TITLE "Nobody Needs Nobody"     PERFORMER "Playa Fly"     INDEX 01 05:49:00   TRACK 06 AUDIO     TITLE "25 To Life - 03 - Fuck Where You From"     PERFORMER "PSC"     INDEX 01 08:02:00   TRACK 07 AUDIO     TITLE "Ain't Gon Let Up (Dirty)"     PERFORMER "DG Yola"     INDEX 01 09:58:00   TRACK 08 AUDIO     TITLE "Trap House"     PERFORMER "Gucci Mane"     INDEX 01 12:15:00   TRACK 09 AUDIO     TITLE "LOTS OF MONEY"     PERFORMER "K.p"     INDEX 01 13:39:00   TRACK 10 AUDIO     TITLE "I GOT IT FROM GETTIN IT"     PERFORMER "K.P."     INDEX 01 14:56:00   TRACK 11 AUDIO     TITLE "Ridin'"     PERFORMER "T.I. feat. Big Kuntry & Plies"     INDEX 01 16:13:00   TRACK 12 AUDIO     TITLE "A Couple Grand"     PERFORMER "Young Jock"     INDEX 01 17:53:00   TRACK 13 AUDIO     TITLE "Neighborhood Supastar"     PERFORMER "Young Capone"     INDEX 01 19:10:00   TRACK 14 AUDIO     TITLE "Tha Classic"     PERFORMER "Kingpin Skinny Pimp feat. 211"     INDEX 01 21:23:00   TRACK 15 AUDIO     TITLE "I Don't Give A"     PERFORMER "Lil Jon & Eastside Boyz feat. Mystikal & Krayzie Bone"     INDEX 01 22:30:00   TRACK 16 AUDIO     TITLE "Some Cut"     PERFORMER "Trillville feat. Cutty"     INDEX 01 25:05:00   TRACK 17 AUDIO     TITLE "1 Lee"     PERFORMER " feat. Plies "Acting Like""     INDEX 01 26:20:00   TRACK 18 AUDIO     TITLE "I Am The Club (prod. by Jonathan "J.R. Rotem) (prod. by jonathan j.r. rotem)"     PERFORMER "Plies"     INDEX 01 27:29:00   TRACK 19 AUDIO     TITLE "dont trust no nigga"     PERFORMER "KHIA"     INDEX 01 29:04:00   TRACK 20 AUDIO     TITLE "F**k Friends"     PERFORMER "Camoflauge"     INDEX 01 31:36:00   TRACK 21 AUDIO     TITLE "Carolina's My Home"     PERFORMER "The Crime Family"     INDEX 01 33:31:00

    The History Network
    3207 The Northwest Indian War - Part 2

    The History Network

    Play Episode Listen Later Jun 19, 2022 17:25


    The Legion of the United States was America's first attempt to establish a permanent military capable of defending its new borders, from hostile Native Americans, as a reaction to the defeats of the hastily raised regular and militia units during the Harmar Campaign and St. Clair's Defeat. Dur: 18mins File: .mp3

    The Rush Hour Melbourne Catch Up - 105.1 Triple M Melbourne - James Brayshaw and Billy Brownless
    Idiot File, Rory Sloane, Boomer Harvey - The Rush Hour Sunday Session - Sunday 19th June 2022

    The Rush Hour Melbourne Catch Up - 105.1 Triple M Melbourne - James Brayshaw and Billy Brownless

    Play Episode Listen Later Jun 19, 2022 45:06


    Rory Sloane, Billy's performance in the 1992 GF, Dr Chris Brown, what hit you in the head... unusual?, Brent Harvey, Kate Bush is back in the charts, donut-face Billy, Idiot File, Billy's Joke See omnystudio.com/listener for privacy information.

    Not In a Creepy Way
    NIACW 466 Child 44

    Not In a Creepy Way

    Play Episode Listen Later Jun 18, 2022 57:27


    Brothers J and Drew tackled the bleak film Child 44. They watched it so you don't have to.   Housekeeping begins at 40:25 during which they discuss For All Mankind, some Bond talk, the original Top Gun, private screenings, and home carpentry.   File length 57:26 File Size 43.4 MB   Theme by Jul Big Green via SongFinch Subscribe to us on Apple Podcasts Listen to us on Stitcher Like us on Facebook Follow us on Twitter Send your comments to show@notinacreepyway.com Visit the show website at Error! Hyperlink reference not valid.>  

    KUOW Newsroom
    Process now up and running for public to file complaints about police officers with WA state

    KUOW Newsroom

    Play Episode Listen Later Jun 18, 2022 1:01


    Staff at the state's Criminal Justice Training Commission will review the complaints to see if the officer should be de-certified.

    In The Thick
    ITT Sound Off: Obvious Criminality

    In The Thick

    Play Episode Listen Later Jun 17, 2022 20:48


    Maria and Julio discuss the latest House committee hearing on the January 6 attempted coup at the U.S. Capitol. They also get into a commemorative coin that's been circulating, which shows Border Patrol agents chasing Haitian migrants on horseback, and they reflect on the 10 year anniversary of DACA. Finally, they unpack the special election in South Texas, where Republican Mayra Flores won the congressional seat. ITT Staff Picks: “If the coins are connected to Border Patrol agents, they could become the latest example of what immigrant advocates have said is a prevalence of offensive humor within the ranks, after Facebook posts making fun of dead migrants and lawmakers surfaced in 2019,” reports Hamed Aleaziz for the LA Times. Rommel H. Ojeda at Documented spoke to Dreamers who share that they are in a state of anxiety because of DACA's uncertainty, and that the program is not enough. Mayra Flores' win in South Texas' 34th congressional district shows how Republicans have been working to flip the region, reports Patrick Svitek for The Texas Tribune. Photo credit: AP Photo/Susan Walsh, File

    The Rush Hour Melbourne Catch Up - 105.1 Triple M Melbourne - James Brayshaw and Billy Brownless
    Idiot File, Spud's Game, Dr Chris Brown - The Rush Hour podcast - Friday 17th June 2022

    The Rush Hour Melbourne Catch Up - 105.1 Triple M Melbourne - James Brayshaw and Billy Brownless

    Play Episode Listen Later Jun 17, 2022 59:12


    Billy is in Perth for the West Coast 1992 premiership Reunion, Billy's All Sports Report including NBA, AFL, golf and cricket, Friday Brag Artist, Xavier Ellis, Dr Chris Brown, more sports news - NRL, Super Netball, tennis and Supercars, Chelsea Frawley - Spud's Game tonight, social media feedback, Idiot File, Billy's Joke See omnystudio.com/listener for privacy information.

    The Jubal Show
    Brittany Spears Had to File a Restraining Order Against This Person!!

    The Jubal Show

    Play Episode Listen Later Jun 15, 2022 58:40


    Wink Dinkler, AKA Jubal Fresh is on the phone ready for another Stupid Internet Question, Ryan is on the phone today to help Jubal Fresh in this Phone Prank, there is a woman on the phone who thinks her husband is cheating on her because he is spending too much time at the club, there is a guy on the phone who has a Dirty Little Secret about his family that could change his family tree, Jubal reports on a new trend in men's fashion in this Idiots in the News, while Christian Gray Snow reports on his dreams of swimming with whales ending, Jubal Fresh had to tell Tina he burned her warehouse down in the second Phone Prank, Rob is on the phone and is not getting a call back from Monica in this First Date Follow Up, and The Jubal Show discuss how to get over your biggest fears!Leave a rating and review wherever you listen. It will help the show out in a big way. If that's not your thing, you can find us on social media here:https://instagram.com/thejubalshowhttps://twitter.com/thejubalshowhttps://www.tiktok.com/@thejubalshow

    The Dom Giordano Program
    Pennsylvania Republicans File For Krasner Impeachment

    The Dom Giordano Program

    Play Episode Listen Later Jun 13, 2022 45:48


    Full Hour | Today, Dom leads off the Dom Giordano Program by providing some very uplifting news, telling that Pennsylvania Republicans have drafted and announced the articles and process of impeachment for Philadelphia District Attorney Larry Krasner. Giordano tells about the new push, explaining how things will work if they go according to the plan of Pennsylvania Republicans. Giordano reminds listeners how things have gotten to this point, telling of the rampant lawlessness in Philadelphia and the refusal of Krasner to do his job. Then, Bill O'Reilly returns to the Dom Giordano Program to discuss his newest entry into his Killing series, Killing the Killers, this time focusing on the global war against terrorism. O'Reilly reveals the success of his book, and tells why he believes people have embraced his Killing series. Also, O'Reilly offers his thoughts on the January 6th Insurrection hearings, explaining why he believes it to be a political circus. (Photo by Getty Images)

    Cosmopod
    Roots of the Rank and File Strategy with Kim Moody

    Cosmopod

    Play Episode Listen Later Jun 13, 2022 97:40


    Annie and Paul join Kim Moody, a socialist and labor movement theorist and author of The Rank and File Strategy and Breaking the Impasse. We discuss Kim's political origins between the civil rights movement and labor unionism; his experience with unions and rank-and-file rebellion in the 1970s as a member of International Socialists; the history, purpose and achievements of Labor Notes, Kim's vision of political change through mass action, including his thoughts on the Amazon Labor Union, and what socialists today can learn from the work of him and his comrades.

    In The Thick
    An Immigration Midterms Check

    In The Thick

    Play Episode Listen Later Jun 7, 2022 40:28


    In this special collaboration with Latino USA, Maria and Julio are joined by Camilo Montoya-Galvez, immigration reporter at CBS News. They dive deep into immigration policy in the United States and where the Biden administration stands on fulfilling campaign promises on immigration reform. They talk about the continuation of Trump-era policies like Title 42 and Remain in Mexico, and the detention and treatment of migrants and refugees seeking asylum. Finally, they get into what Democrats need to do moving forward to reimagine immigration systems in this country. ITT Staff Picks: “A new Biden administration policy aims to expedite the processing of migrants who ask for humanitarian protection along the southern border,” reports Camilo Montoya-Galvez for CBS News. Aishvarya Kavi of The New York Times interviewed over a dozen people living in the U.S. with temporary visas. They are urging the Biden administration for a path toward legally remaining in the country after their visas expire. In this piece for Documented, Natasha Ishak breaks down recent immigration reform proposals and how they have stalled in Congress. Photo credit: AP Photo/Evan Vucci, File